Поиск

2007 VA - Buddha-Bar - Buddhattitude Liberdade {George V} [CD]

2007 VA - Buddha-Bar - Buddhattitude Liberdade {George V} [CD]
Стили:
Дата издания диска:
2 мая 2007
Издатель (лейбл):
Носитель:
CD
Тип рипа:
image+.cue
Аудиокодек:
FLAC (*.flac)
Битрейт аудио:
lossless
Наличие сканов:
да

Треклист:

01. Liberdade  04:27
02. Angel's Mountain  04:32
03. Argentina Love Affair  03:56
04. Otra Vida  04:16
05. Tango De Noche  03:53
06. Musica Del Mar  03:52
07. Abre Tu Corazon  04:30
08. Lacrimas Del Amor  04:10
09. Playa Blanca Dream  04:01
10. La Ciudad De Estrellas  03:51
11. Hablare De Ti  03:56
12. Evita  04:14
13. Copacabana Café  04:13
14. Hotel Paraiso  03:59
15. Felicidade  04:20

Лог создания рипа
Exact Audio Copy V0.99 prebeta 4 from 23. January 2008

Отчёт EAC об извлечении, выполненном 2. января 2009, 3:57

Yves Coignet & Abdalkader Khabouri / Buddhattitude - Liberdade

Дисковод: SONY    CD-RW  CRX230ED   Adapter: 4  ID: 0

Режим чтения                 : Достоверность
Использование точного потока : Да
Отключение кэша аудио        : Да
Использование указателей C2  : Нет

Коррекция смещения при чтении                     : 6
Способность читать области Lead-in и Lead-out     : Нет
Заполнение пропущенных сэмплов тишиной            : Да
Удаление блоков с тишиной в начале и конце        : Нет
При вычислениях CRC использовались нулевые сэмплы : Да
Интерфейс                                         : Встроенный Win32-интерфейс для Win NT/2000

Выходной формат          : Пользовательский кодировщик
Выбранный битрейт        : 1024 kBit/s
Качество                 : Высокий
Добавление ID3-тэга      : Нет
Утилита сжатия           : C:\Program Files\Exact Audio Copy\FLAC\FLAC.EXE
Дополнительные параметры : -6 -V -T "ARTIST=%a" -T "TITLE=%t" -T "ALBUM=%g" -T "DATE=%y" -T "TRACKNUMBER=%n" -T "GENRE=%m" -T "COMMENT=%e" %s -o %d


TOC извлечённого CD

     Трек |   Старт  | Длительность | Начальный сектор | Конечный сектор 
    ---------------------------------------------------------------------
       1  |  0:00.00 |    4:27.08   |           0      |      20032      
       2  |  4:27.08 |    4:31.72   |       20033      |      40429      
       3  |  8:59.05 |    3:56.34   |       40430      |      58163      
       4  | 12:55.39 |    4:16.04   |       58164      |      77367      
       5  | 17:11.43 |    3:53.09   |       77368      |      94851      
       6  | 21:04.52 |    3:52.36   |       94852      |     112287      
       7  | 24:57.13 |    4:30.56   |      112288      |     132593      
       8  | 29:27.69 |    4:10.33   |      132594      |     151376      
       9  | 33:38.27 |    4:00.61   |      151377      |     169437      
      10  | 37:39.13 |    3:51.09   |      169438      |     186771      
      11  | 41:30.22 |    3:56.48   |      186772      |     204519      
      12  | 45:26.70 |    4:14.66   |      204520      |     223635      
      13  | 49:41.61 |    4:15.45   |      223636      |     242805      
      14  | 53:57.31 |    3:59.10   |      242806      |     260740      
      15  | 57:56.41 |    4:20.55   |      260741      |     280295      


Характеристики диапазона извлечения и сообщения об ошибках

Выбранный диапазон

     Имя файла C:\Музыка\Buddhattitude - Liberdade\Yves Coignet & Abdalkader Khabouri - Buddhattitude - Liberdade.wav

     Пиковый уровень 100.0 %
     Качество диапазона 100.0 %
     CRC теста F4AF1CAC
     CRC копии F4AF1CAC
     Копирование... OK

Ошибок не произошло

 
AccurateRip: сводка
 
Трек  1  точность не определена (достоверность 2)  [0E36A1BB], AccurateRip вернул [B57EC4BC]
Трек  2  точность не определена (достоверность 2)  [C1084EC2], AccurateRip вернул [0A1B034A]
Трек  3  точность не определена (достоверность 2)  [6B21E58D], AccurateRip вернул [0F2B1BEE]
Трек  4  точность не определена (достоверность 2)  [7457B1A9], AccurateRip вернул [E424BA55]
Трек  5  точность не определена (достоверность 2)  [FFC9CE66], AccurateRip вернул [49B10B9E]
Трек  6  точность не определена (достоверность 2)  [AE6C6CBA], AccurateRip вернул [9028178E]
Трек  7  точность не определена (достоверность 2)  [99650036], AccurateRip вернул [62B7C3B2]
Трек  8  точность не определена (достоверность 2)  [77DFE71E], AccurateRip вернул [561563A8]
Трек  9  точность не определена (достоверность 2)  [C9F5C32B], AccurateRip вернул [F0FE9583]
Трек 10  точность не определена (достоверность 2)  [A4006E85], AccurateRip вернул [D22F8C60]
Трек 11  точность не определена (достоверность 2)  [8A2EC9A3], AccurateRip вернул [23DDB1B1]
Трек 12  точность не определена (достоверность 2)  [10459E0A], AccurateRip вернул [602A1028]
Трек 13  точность не определена (достоверность 2)  [F7C1132F], AccurateRip вернул [09660389]
Трек 14  точность не определена (достоверность 2)  [47C20F87], AccurateRip вернул [6291D998]
Трек 15  точность не определена (достоверность 2)  [D9388D5E], AccurateRip вернул [C3AEE346]
 
Ни один трек не прошёл проверки на точность
В вашей базе может быть иной вариант штамповки диска

Конец отчёта
По всем вопросам пишите личное сообщение пользователю M0p94ok.
09:22
166
Нет комментариев. Ваш будет первым!