Поиск

2007 VA - Buddha-Bar - Buddhattitude Inuk {George V} [CD]

2007 VA - Buddha-Bar - Buddhattitude Inuk {George V} [CD]
Стили:
Дата издания диска:
20 августа 2007
Издатель (лейбл):
Носитель:
CD
Тип рипа:
tracks+.cue
Аудиокодек:
FLAC (*.flac)
Битрейт аудио:
lossless
Наличие сканов:
да

01. Inuk  04:32
02. Iceberg Road  04:16
03. Ultimate World  04:15
04. Alaska Moonlight  04:36
05. Siberian Shuffle  04:40
06. Talking to the Earth  05:02
07. Blue Space  04:17
08. Midnight Sunshine  04:40
09. Artica  04:25
10. Natural Darkness  05:05
11. Anuri Sound Project  05:17
12. Strange Revelation  04:52
13. Amaruq  04:25
14. Galactica Wings  04:18
15. Another Spring  04:15

Лог создания рипа
Exact Audio Copy V0.99 prebeta 4 from 23. January 2008

Отчёт EAC об извлечении, выполненном 2. января 2009, 11:19

Yves Coignet & Abdalkader Khabouri / Buddhattitude - Inuk

Дисковод: SONY    CD-RW  CRX230ED   Adapter: 4  ID: 0

Режим чтения                 : Достоверность
Использование точного потока : Да
Отключение кэша аудио        : Да
Использование указателей C2  : Нет

Коррекция смещения при чтении                     : 6
Способность читать области Lead-in и Lead-out     : Нет
Заполнение пропущенных сэмплов тишиной            : Да
Удаление блоков с тишиной в начале и конце        : Нет
При вычислениях CRC использовались нулевые сэмплы : Да
Интерфейс                                         : Встроенный Win32-интерфейс для Win NT/2000

Выходной формат          : Пользовательский кодировщик
Выбранный битрейт        : 1024 kBit/s
Качество                 : Высокий
Добавление ID3-тэга      : Нет
Утилита сжатия           : C:\Program Files\Exact Audio Copy\FLAC\FLAC.EXE
Дополнительные параметры : -6 -V -T "ARTIST=%a" -T "TITLE=%t" -T "ALBUM=%g" -T "DATE=%y" -T "TRACKNUMBER=%n" -T "GENRE=%m" -T "COMMENT=%e" %s -o %d


TOC извлечённого CD

     Трек |   Старт  | Длительность | Начальный сектор | Конечный сектор 
    ---------------------------------------------------------------------
       1  |  0:00.00 |    4:32.27   |           0      |      20426      
       2  |  4:32.27 |    4:16.32   |       20427      |      39658      
       3  |  8:48.59 |    4:15.01   |       39659      |      58784      
       4  | 13:03.60 |    4:36.03   |       58785      |      79487      
       5  | 17:39.63 |    4:40.00   |       79488      |     100487      
       6  | 22:19.63 |    5:02.02   |      100488      |     123139      
       7  | 27:21.65 |    4:17.00   |      123140      |     142414      
       8  | 31:38.65 |    4:40.00   |      142415      |     163414      
       9  | 36:18.65 |    4:25.34   |      163415      |     183323      
      10  | 40:44.24 |    5:05.00   |      183324      |     206198      
      11  | 45:49.24 |    5:17.00   |      206199      |     229973      
      12  | 51:06.24 |    4:52.03   |      229974      |     251876      
      13  | 55:58.27 |    4:25.01   |      251877      |     271752      
      14  | 60:23.28 |    4:18.06   |      271753      |     291108      
      15  | 64:41.34 |    4:15.02   |      291109      |     310235      


Характеристики диапазона извлечения и сообщения об ошибках

Выбранный диапазон

     Имя файла C:\Музыка\Buddhattitude - Inuk\Yves Coignet & Abdalkader Khabouri - Buddhattitude - Inuk.wav

     Подозрительная позиция 1:08:15 - 1:08:16
     Подозрительная позиция 1:08:18
     Подозрительная позиция 1:08:20
     Подозрительная позиция 1:08:22
     Подозрительная позиция 1:08:24 - 1:08:26
     Подозрительная позиция 1:08:29
     Подозрительная позиция 1:08:33
     Подозрительная позиция 1:08:38 - 1:08:39
     Подозрительная позиция 1:08:48
     Подозрительная позиция 1:08:50 - 1:08:51

     Пиковый уровень 100.0 %
     Качество диапазона 99.5 %
     CRC теста 49FDC3C4
     CRC копии 9D8D9AB4
     Копирование завершено

Были ошибки

 
AccurateRip: сводка
 
Трек  1  нет в базе данных
Трек  2  нет в базе данных
Трек  3  нет в базе данных
Трек  4  нет в базе данных
Трек  5  нет в базе данных
Трек  6  нет в базе данных
Трек  7  нет в базе данных
Трек  8  нет в базе данных
Трек  9  нет в базе данных
Трек 10  нет в базе данных
Трек 11  нет в базе данных
Трек 12  нет в базе данных
Трек 13  нет в базе данных
Трек 14  нет в базе данных
Трек 15  нет в базе данных
 
Ни одного трека нет в базе AccurateRip

Конец отчёта
11:46
522
Нет комментариев. Ваш будет первым!