Поиск

2007 Stefano Bollani Trio - I'm In The Mood For Love (2018) {Venus VHGD-316} [DSD64 ISO]

2007 Stefano Bollani Trio - I'm In The Mood For Love (2018) {Venus VHGD-316} [DSD64 ISO]
Стили:
Дата записи диска:
3 августа - 4 августа 2006
Место записи:
House Recording Studio, Rome, Italy
Издатель (лейбл):
Номер по каталогу:
VHGD-316
Носитель:
SACD
Формат:
DSD
Тип рипа:
tracks
Контейнер:
ISO (*.iso)
Количество каналов:
2.0
Разрядность/ЧД:
64 (2,8 MHz/1 Bit)
Битрейт аудио:
lossless
Время звучания:
01:02:06
Наличие сканов:
да

Треклист:

01. Makin' Whoopee  05:01
02. Cheek To Cheek  07:51
03. I'm In The Mood For Love  03:41
04. Puttin' On The Ritz  03:43
05. How Long Has This Been Going On?  07:05
06. Margie  07:07
07. Moonlight Serenade  05:57
08. It's Only A Paper Moon  05:42
09. A Kiss To Build A Dream On  07:11
10. Honeysuckle Rose  05:20
11. But Not For Me  03:24

Состав:
  • Bass – Ares Tavolazzi
  • Drums – Walter Paoli
  • Engineer – Emanuele Bossi
  • Mastered By – Shuji Kitamura, Tetsuo Hara
  • Mixed By – Shuji Kitamura, Tetsuo Hara
  • Piano – Stefano Bollani
  • Producer – Tetsuo Hara
Лог проверки качества
foobar2000 1.6.4 / Dynamic Range Meter 1.1.1
log date: 2021-07-12 20:08:10

--------------------------------------------------------------------------------
Analyzed: STEFANO BOLLANI TRIO / I'm In The Mood For Love
--------------------------------------------------------------------------------

DR         Peak         RMS     Duration Track
--------------------------------------------------------------------------------
DR7       -5.10 dB   -15.09 dB      5:02 01-Makin' Whoopee
DR8       -5.07 dB   -16.08 dB      7:52 02-Cheek To Cheek
DR11      -5.53 dB   -19.26 dB      3:42 03-I'm In The Mood For Love
DR8       -4.82 dB   -14.83 dB      3:43 04-Puttin' On The Ritz
DR10      -4.99 dB   -18.04 dB      7:05 05-How Long Has This Been Going On?
DR8       -4.74 dB   -16.21 dB      7:07 06-Margie
DR12      -5.52 dB   -20.34 dB      5:57 07-Moonlight Serenade
DR8       -4.98 dB   -15.68 dB      5:42 08-It's Only A Paper Moon
DR12      -5.45 dB   -20.51 dB      7:12 09-A Kiss To Build A Dream On
DR7       -4.81 dB   -14.80 dB      5:20 10-Honeysuckle Rose
DR11      -5.53 dB   -19.25 dB      3:25 11-But Not For Me
--------------------------------------------------------------------------------

Number of tracks:  11
Official DR value: DR9

Samplerate:        2822400 Hz / PCM Samplerate: 88200 Hz
Channels:          2
Bits per sample:   1
Bitrate:           5645 kbps
Codec:             DSD64
================================================================================
По всем вопросам пишите личное сообщение пользователю M0p94ok.
14:08
250
Нет комментариев. Ваш будет первым!