Поиск

2007 Harold Mabern - Misty (2017) {Venus} [DSD64 ISO]

2007 Harold Mabern - Misty (2017) {Venus} [DSD64 ISO]
Стили:
Дата записи диска:
20 декабря 2006
Место записи:
The Studio, New York City, NY, USA
Дата издания диска:
22 августа 2007
Дата переиздания диска:
17 мая 2017
Издатель (лейбл):
Номер по каталогу:
VHGD-222
Носитель:
SACD
Формат:
DSD
Тип рипа:
image
Контейнер:
ISO (*.iso)
Количество каналов:
2.0
Разрядность/ЧД:
64 (2,8 MHz/1 Bit)
Битрейт аудио:
lossless
Время звучания:
00:50:53
Наличие сканов:
только обложка

Треклист:

01. Dat Dere  04:52
02. She  04:31
03. Smoke Gets in Your Eyes  04:14
04. Mabern's Boogie  02:32
05. The Way We Were  05:10
06. Unforgetable  04:19
07. You Don't Know What Love is  03:51
08. A Child is Born  05:18
09. Wail Bait  03:45
10. Stolen Moments  04:18
11. Wayne's Blues  03:59
12. Misty  04:54

Состав:
  •     Engineer – Katherine Miller
  •     Engineer [Cutting] – Kazumi Tezuka
  •     Mixed By, Mastered By – Shuji Kitamura, Tetsuo Hara
  •     Piano – Harold Mabern
  •     Producer – Tetsuo Hara, Todd Barkan
Лог проверки качества
foobar2000 1.6.8 / Dynamic Range Meter 1.1.1
log date: 2021-12-15 10:40:50
--------------------------------------------------------------------------------
Analyzed: HAROLD MABERN / Misty
--------------------------------------------------------------------------------
DR         Peak         RMS     Duration Track
--------------------------------------------------------------------------------
DR9       -5.06 dB   -15.88 dB      4:47 01-Dat Dere
DR10      -5.09 dB   -18.63 dB      4:27 02-She
DR10      -5.12 dB   -18.69 dB      4:10 03-Smoke Gets In Your Eyes
DR8       -5.01 dB   -14.61 dB      2:27 04-Mabern's Boogie
DR9       -5.02 dB   -16.75 dB      5:05 05-The Way We Were
DR9       -4.93 dB   -15.84 dB      4:14 06-Unforgettable
DR8       -4.93 dB   -15.52 dB      3:46 07-You Don't Know What Love Is
DR10      -5.09 dB   -17.53 dB      5:13 08-A Child Is Born
DR8       -4.93 dB   -14.64 dB      3:40 09-Wail Bait
DR9       -5.07 dB   -16.12 dB      4:13 10-Stolen Moments
DR8       -4.93 dB   -14.41 dB      3:54 11-Wayne's Blues
DR9       -5.08 dB   -17.19 dB      4:54 12-Misty
--------------------------------------------------------------------------------
Number of tracks:  12
Official DR value: DR9
Samplerate:        2822400 Hz / PCM Samplerate: 88200 Hz
Channels:          2
Bits per sample:   1
Bitrate:           5645 kbps
Codec:             DSD64
================================================================================
По всем вопросам пишите личное сообщение пользователю M0p94ok.
13:32
97
Нет комментариев. Ваш будет первым!