Вы используете незарегистрированную версию компонента "Вкладки"!

Поиск

2007 Diana Panton - If The Moon Turns Green (2018) {2xHD} [DSD128]

2007 Diana Panton - If The Moon Turns Green (2018) {2xHD} [DSD128]
Стили:
Дата записи диска:
август 2006
Место записи:
Inception Sound Studios, Toronto, Canada
Издатель (лейбл):
Битрейт аудио:
lossless
Доп. инфо:

Формат записи/Источник записи: [DSD][OF]
Наличие водяных знаков: Нет
Год издания/переиздания диска: 2007 / 2018
Продолжительность: 61:42
Наличие сканов в содержимом раздачи: Буклет PDF

Контейнер: DSF (*.dsf)
Тип рипа: tracks
Разрядность: 128 (5,6 MHz/1 Bit)
Формат: DSD
Количество каналов: 2.0

Источник (релизер): https://www.hdtracks.com/#/album/5e413e23529225a3e508570f

Лог проверки качества
==========================================================
foobar2000 1.4 / Dynamic Range Meter 1.1.1
log date: 2020-07-19 15:39:22
----------------------------------------------------------------------------------------------
Analyzed: Diana Panton / If the Moon Turns Green
----------------------------------------------------------------------------------------------
DR           Peak          RMS     Duration        Track
----------------------------------------------------------------------------------------------
DR10   -7.49 dB   -19.59 dB   3:23   01-Destination Moon
DR10   -6.72 dB   -19.54 dB   3:19   02-You Were Never Lovelier: I'm old fashioned
DR10   -7.11 dB   -19.17 dB   2:45   03-It's Like Reaching for the Moon
DR11   -7.89 dB   -21.96 dB   4:36   04-If the Moon Turns Green
DR10   -6.26 dB   -20.91 dB   3:39   05-Reaching for the Moon
DR10   -7.56 dB   -20.55 dB   5:10   06-Quiet Nights of Quiet Stars
DR10   -7.89 dB   -19.98 dB   4:54   07-Moonlight Serenade
DR11   -7.74 dB   -20.73 dB   3:26   08-There Ought to Be a Moonlight Savings Time
DR10   -7.61 dB   -21.14 dB   3:27   09-A Litte Girl a Little Boy a Little Moon
DR10   -7.09 dB   -21.21 dB   3:45   10-Moon and Sand
DR11   -7.67 dB   -20.85 dB   2:55   11-Music in the Air: I've Told Ev'ry Little Star
DR10   -7.39 dB   -20.61 dB   3:30   12-A Handful of Stars
DR10   -7.01 dB   -19.39 dB   3:51   13-Oh, you Crazy Moon
DR10   -7.55 dB   -20.89 dB   5:03   14-So Many Stars
DR11   -7.44 dB   -21.78 dB   4:27   15-Fly Me to the Moon
DR11   -8.21 dB   -22.86 dB   3:31   16-Moon River: Breakfast at Tiffany's: Moon River
----------------------------------------------------------------------------------------------
Number of tracks: 16
Official DR value: DR10

Samplerate: 5644800 Hz / PCM Samplerate: 176400 Hz
Channels: 2
Bits per sample: 1
Bitrate: 11290 kbps
Codec: DSD128
==========================================================
Any questions - support@pro-jazz.com. Есть вопросы - support@pro-jazz.com
16:03
300
Нет комментариев. Ваш будет первым!