Поиск

2006 Olivia Trummer Trio - Nach Norden {Neuklang NCD4012} [24-44,1]

2006 Olivia Trummer Trio - Nach Norden {Neuklang NCD4012} [24-44,1]
Место записи:
Bauer Studios Ludwigsburg
Дата издания диска:
1 октября 2006
Издатель (лейбл):
Номер по каталогу:
NCD4012
Носитель:
WEB
Тип рипа:
tracks
Аудиокодек:
FLAC (*.flac)
Битрейт аудио:
lossless
Время звучания:
00:54:03
Наличие сканов:
только обложка
Страна-производитель диска (релиза):
Germany
Релизёр (источник):
M0p94ok

Треклист:

1 Eternal Dance 8:45
2 Leaving Earth 7:09
3 Rostock 7:40
4 Nach Norden 7:23
5 Last Tango 8:17
6 Restless 3:45
7 A Hint of Sorrow 7:47
8 A Hint of Sorrow (Solo) 3:17

Лог проверки качества
foobar2000 1.3.16 / Dynamic Range Meter 1.1.1
log date: 2019-03-25 16:17:40

--------------------------------------------------------------------------------
Analyzed: Olivia Trummer Trio & Olivia Trummer / Nach Norden
--------------------------------------------------------------------------------

DR         Peak         RMS     Duration Track
--------------------------------------------------------------------------------
DR11      -0.47 dB   -13.39 dB      8:45 01-Eternal Dance
DR10      -0.51 dB   -12.95 dB      7:10 02-Leaving Earth
DR13      -0.51 dB   -17.37 dB      7:40 03-Rostock
DR10      -0.33 dB   -12.84 dB      7:23 04-Nach Norden
DR11      -0.53 dB   -14.11 dB      8:17 05-Last Tango
DR11      -0.69 dB   -15.31 dB      3:45 06-Restless
DR10      -0.48 dB   -13.39 dB      7:47 07-A Hint of Sorrow
DR13      -0.90 dB   -18.76 dB      3:18 08-A Hint of Sorrow (Solo)
--------------------------------------------------------------------------------

Number of tracks:  8
Official DR value: DR11

Samplerate:        44100 Hz
Channels:          2
Bits per sample:   24
Bitrate:           1143 kbps
Codec:             FLAC
================================================================================
Приватный:
Да (DHT отключён)
Размер:
566.11 Мб (593,612,576 байт) » файлов: 11
Участники:
2 раздают, 0 качают (2 участников всего)
Внешние участники:
--- [ Обновить ]
No seeders - write a personal message to user M0p94ok. Нет сидеров - пишите личное сообщение пользователю M0p94ok.
22:27
30
Нет комментариев. Ваш будет первым!