Поиск

2006 Nils Petter Molvaer - An American Compilation { Thirsty Ear 57169}

2006 Nils Petter Molvaer - An American Compilation {	Thirsty Ear 57169}
Треклист:

Носитель: CD
Год издания: 2006
Издатель: Thirsty Ear
Номер по каталогу: THI 57169.2
Аудиокодек: wv
Тип рипа: image + .cue
Продолжительность: 01:00:03
Наличие сканов: да

Треклист
01.  Water [6:16]
02.  Solid Ether [9:02]
03.  Nebulizer (edited) [5:03]
04.  Kakonita [4:48]
05.  Kakonita (Deathprod mix) [3:41]
06.  Darker (Mungolian Jet Set Metro mix) [6:50]
07.  Vilderness (Live from Hamburg) [5:42]
08.  Little Indian [4:43]
09.  Frozen [5:56]
10.  Tabula Rasa [2:17]
11.  Only These Things Count [6:11]

 
EAC log

EAC extraction logfile from 28. July 2006, 12:34 for CD
Nils Petter Molvaer/ An American Compilation

Used drive  : PIONEER DVD-RW  DVR-106D   Adapter: 1  ID: 0
Read mode   : Secure with NO C2, accurate stream, disable cache
Read offset correction : 48
Overread into Lead-In and Lead-Out : Yes

Used output format : C:\Program Files\wavpack\wavpack.exe   (User Defined Encoder)
                     320 kBit/s
                     Additional command line options : -hxm "%s" "%d" -w "ARTIST=%a" -w "ALBUM=%g" -w "YEAR=%y" -w "GENRE=%m" -w "CUESHEET=@f:\*.cue"

Other options      : 
    Fill up missing offset samples with silence : Yes
    Delete leading and trailing silent blocks : No
    Installed external ASPI interface


Range status and errors
Selected range
     Filename F:\Nils Petter Molvжr - An American Compilation.wav.wav.wav

     Peak level 97.7 %
     Range quality 99.9 %
     CRC 3E1EC857
     Copy OK

No errors occured

End of status report

 
.cue

REM GENRE Electronic
REM DATE 2006
REM DISCID A20F320C
REM COMMENT "ExactAudioCopy v0.95b4"
PERFORMER "Nils Petter Molvaer"
TITLE "An American Compilation"
FILE "Nils Petter Molvaer.wv" WAVE
  TRACK 01 AUDIO
    TITLE "Water"
    PERFORMER "Nils Petter Molvжr"
    ISRC NOCLL0602010
    INDEX 01 00:00:00
  TRACK 02 AUDIO
    TITLE "Solid Ether"
    PERFORMER "Nils Petter Molvжr"
    ISRC NOCLL0602020
    INDEX 01 06:16:41
  TRACK 03 AUDIO
    TITLE "Nebulizer (edited)"
    PERFORMER "Nils Petter Molvжr"
    ISRC NOCLL0602030
    INDEX 01 15:19:20
  TRACK 04 AUDIO
    TITLE "Kakonita"
    PERFORMER "Nils Petter Molvжr"
    ISRC NOCLL0602040
    INDEX 01 20:22:64
  TRACK 05 AUDIO
    TITLE "Kakonita (Deathprod mix)"
    PERFORMER "Nils Petter Molvжr"
    ISRC NOCLL0602050
    INDEX 01 25:10:74
  TRACK 06 AUDIO
    TITLE "Darker (Mungolian Jet Set Metro mix)"
    PERFORMER "Nils Petter Molvжr"
    ISRC NOCLL0602060
    INDEX 01 28:52:17
  TRACK 07 AUDIO
    TITLE "Vilderness (Live from Hamburg)"
    PERFORMER "Nils Petter Molvжr"
    ISRC NOCLL0602070
    INDEX 01 35:42:20
  TRACK 08 AUDIO
    TITLE "Little Indian"
    PERFORMER "Nils Petter Molvжr"
    ISRC NOCLL0602080
    INDEX 01 41:24:57
  TRACK 09 AUDIO
    TITLE "Frozen"
    PERFORMER "Nils Petter Molvжr"
    ISRC NOCLL0602090
    INDEX 01 46:08:01
  TRACK 10 AUDIO
    TITLE "Tabula Rasa"
    PERFORMER "Nils Petter Molvжr"
    ISRC NOCLL0602100
    INDEX 01 52:04:17
  TRACK 11 AUDIO
    TITLE "Only These Things Count"
    PERFORMER "Nils Petter Molvжr"
    ISRC NOCLL0602110
    INDEX 01 54:21:44

 !!!ЕАС писать отказывается из-за наличия национальных букв в тегах!!!

Приватный:
Нет (DHT включён)
Размер:
360.96 Мб (378,489,851 байт) » файлов: 10
Участники:
0 раздают, 0 качают (0 участников всего)
Внешние участники:
7 раздают, 2 качают (9 участников всего) [ Обновить ]
No seeders - write a personal message to user M0p94ok. Нет сидеров - пишите личное сообщение пользователю M0p94ok.
09:55
212
Нет комментариев. Ваш будет первым!