Поиск

2006 Ernie Andrews - How About Me {HighNote} [CD]

2006 Ernie Andrews - How About Me {HighNote} [CD]
Стили:
Дата издания диска:
31 января 2006
Издатель (лейбл):
Номер по каталогу:
HCD 7151
Треклист:

01. She's Got the Blues for Sale  03:08
02. It's Monday Everyday  05:28
03. Boulevard of Memories  03:56
04. It Shouldn't Happen to a Dream  06:30
05. The Wildest Gail in Town  02:59
06. This Is Always  05:47
07. I've Got to Pass Your House to Get to My House  05:20
08. How About Me  05:44
09. The More I See You  03:42
10. River's Invitation  05:35
11. Vacation from the Blues  06:18

Состав:
  • Ernie Andrews — vocals
  • Houston Person — tenor saxophone
  • Phil Wright — piano
  • Terry Evans — guitar
  • Richard Simon — bass
  • Frank Wilson — drums
Доп. инфо:

Аудио кодек: APE
Тип рипа: image+.cue
Битрейт аудио: lossless
Продолжительность: 54:32
 

Лог создания рипа
Exact Audio Copy V0.99 prebeta 4 from 23. January 2008
EAC extraction logfile from 16. April 2009, 11:27
Ernie Andrews / How About Me
Used drive  : PLEXTOR DVDR   PX-750A   Adapter: 2  ID: 1
Read mode               : Secure
Utilize accurate stream : Yes
Defeat audio cache      : Yes
Make use of C2 pointers : No
Read offset correction                      : 102
Overread into Lead-In and Lead-Out          : No
Fill up missing offset samples with silence : Yes
Delete leading and trailing silent blocks   : No
Null samples used in CRC calculations       : Yes
Used interface                              : Native Win32 interface for Win NT & 2000
Used output format : Monkey's Audio Lossless Encoder v3.99 DLL
Sample format      : Normal Lossless Compression
TOC of the extracted CD
     Track |   Start  |  Length  | Start sector | End sector
    ---------------------------------------------------------
        1  |  0:00.00 |  3:08.40 |         0    |    14139
        2  |  3:08.40 |  5:28.63 |     14140    |    38802
        3  |  8:37.28 |  3:56.34 |     38803    |    56536
        4  | 12:33.62 |  6:30.12 |     56537    |    85798
        5  | 19:03.74 |  2:59.08 |     85799    |    99231
        6  | 22:03.07 |  5:47.57 |     99232    |   125313
        7  | 27:50.64 |  5:20.17 |    125314    |   149330
        8  | 33:11.06 |  5:44.40 |    149331    |   175170
        9  | 38:55.46 |  3:42.17 |    175171    |   191837
       10  | 42:37.63 |  5:35.71 |    191838    |   217033
       11  | 48:13.59 |  6:18.50 |    217034    |   245433
Range status and errors
Selected range
     Filename C:Ernie Andrews - How About Me.ape
     Peak level 100.0 %
     Range quality 99.9 %
     Copy CRC 4CE810AA
     Copy OK
No errors occurred
End of status report
По всем вопросам пишите личное сообщение пользователю M0p94ok.
17:56
371
Нет комментариев. Ваш будет первым!