Поиск

2006 Christian McBride - New York Time {Chesky SACD314}

2006 Christian McBride - New York Time {Chesky SACD314}
Страна-производитель диска (релиза):
USA
Дата записи диска:
31 января 2006
Дата издания диска:
26 сентября 2006
Издатель (лейбл):
Номер по каталогу:
SACD314
Носитель:
CD
Битрейт аудио:
lossless
Аудиокодек:
WavPack (*.wv)
Тип рипа:
image+.cue
Время звучания:
59:04
Наличие сканов:
  • нет
Релизёр (источник):
coconut1
Треклист:

01. Newest Blues [05:43]
02. 6th Ave [06:03]
03. My Shining Hour [05:27]
04. Notes in Three [05:30]
05. In the Kitchen [06:44]
06. Naima [06:18]
07. Grove [05:30]
08. Whisper Not [05:38]
09. Diane [06:04]
10. Mode [06:07]

Состав:
  • David Chesky Audio Production, Producer
  • Norman Chesky Executive Producer
  • Jimmy Cobb Drums
  • Javon Jackson Composer, Sax (Tenor)
  • Howard Mandel Liner Notes
  • Christian McBride Bass, Composer
  • Cedar Walton Composer, Piano

Записано в 

  • St. Peter's Episcopal Church, New York, NY
Лог создания рипа
Exact Audio Copy V0.99 prebeta 3 from 28. July 2007
EAC extraction logfile from 6. March 2008, 10:49
Cedar Walton\Javon Jackson\Christian Mcbride\Jimmy Cobb / New York Time
Used drive : PIONEER DVD-RW DVR-111D Adapter: 1 ID: 0
Read mode : Secure
Utilize accurate stream : Yes
Defeat audio cache : Yes
Make use of C2 pointers : No
Read offset correction : 48
Overread into Lead-In and Lead-Out : Yes
Fill up missing offset samples with silence : Yes
Delete leading and trailing silent blocks : No
Null samples used in CRC calculations : No
Used interface : Installed external ASPI interface
Used output format : Internal WAV Routines
Sample format : 44.100 Hz; 16 Bit; Stereo
TOC of the extracted CD
Track | Start | Length | Start sector | End sector
---------------------------------------------------------
1 | 0:00.00 | 5:43.10 | 0 | 25734
2 | 5:43.10 | 6:03.00 | 25735 | 52959
3 | 11:46.10 | 5:27.00 | 52960 | 77484
4 | 17:13.10 | 5:30.00 | 77485 | 102234
5 | 22:43.10 | 6:44.00 | 102235 | 132534
6 | 29:27.10 | 6:18.00 | 132535 | 160884
7 | 35:45.10 | 5:30.00 | 160885 | 185634
8 | 41:15.10 | 5:38.00 | 185635 | 210984
9 | 46:53.10 | 6:04.00 | 210985 | 238284
10 | 52:57.10 | 6:07.20 | 238285 | 265829
Range status and errors
Selected range
Filename D:\RIP\Walton Jackson Mcbride Cobb\Cedar Walton Javon Jackson Christian Mcbride Jimmy Cobb - New York Time.wav
Peak level 98.8 %
Range quality 100.0 %
Copy CRC 075B9157
Copy OK
No errors occurred
End of status report
Приватный:
Нет (DHT включён)
Размер:
333.34 Мб (349,532,126 байт) » файлов: 4
Участники:
0 раздают, 0 качают (0 участников всего)
Внешние участники:
2 раздают, 1 качают (3 участников всего) [ Обновить ]
12:44
65
RSS
Нет комментариев. Ваш будет первым!