Вы используете незарегистрированную версию компонента "Вкладки"!

Поиск

2006 Charlie Haden & Antonio Forcione - Heartplay {Naim} [24-44,1]

2006 Charlie Haden & Antonio Forcione - Heartplay {Naim} [24-44,1]
Стили:
Дата записи диска:
26-28 июня 2006
Место записи:
The Californian Institute Of The Arts
Издатель (лейбл):
Доп. инфо:

Формат записи/Источник записи: [TR24][OF]
Год издания/переиздания диска: 2006
Жанр: Contemporary Jazz
Издатель (лейбл): Naim Records
Продолжительность: 00:49:23
Наличие сканов в содержимом раздачи: Нет

Контейнер: FLAC (*.flac)
Тип рипа: tracks
Разрядность: 24/44,1
Количество каналов: 2.0

Источник (релизер): Qobuz

Лог проверки качества
foobar2000 1.3.7 / Dynamic Range Meter 1.1.1
log date: 2019-03-26 01:36:23

--------------------------------------------------------------------------------
Analyzed: Charlie Haden / Heartplay
--------------------------------------------------------------------------------

DR         Peak         RMS     Duration Track
--------------------------------------------------------------------------------
DR12      -2.06 dB   -17.04 dB      3:56 01-Anna
DR12      -1.07 dB   -15.77 dB      3:01 02-If...
DR11       0.00 dB   -15.19 dB      8:19 03-La Pasionaria
DR15       0.00 dB   -20.42 dB      6:01 04-Snow
DR13      -1.06 dB   -17.58 dB      6:19 05-Silence
DR12      -0.61 dB   -16.56 dB      8:02 06-Child's Song
DR13      -3.00 dB   -19.86 dB      2:34 07-Nocturne
DR12      -0.09 dB   -17.51 dB     11:15 08-For Turiya
--------------------------------------------------------------------------------

Number of tracks:  8
Official DR value: DR12

Samplerate:        44100 Hz
Channels:          2
Bits per sample:   24
Bitrate:           1216 kbps
Codec:             FLAC
================================================================================
Any questions - support@pro-jazz.com. Есть вопросы - support@pro-jazz.com
11:14
309
Нет комментариев. Ваш будет первым!