Поиск

2006 Albert Ayler - The Impulse Story {Impulse 0602498551035}

2006 Albert Ayler - The Impulse Story {Impulse 0602498551035}
Страна-производитель диска (релиза):
Ukraine
Дата записи диска:
28 марта 1965 - 29 августа 1969
Дата издания диска:
6 июня 2006
Издатель (лейбл):
Номер по каталогу:
0602498551035
Носитель:
CD
Битрейт аудио:
lossless
Аудиокодек:
FLAC (*.flac)
Тип рипа:
tracks+.cue
Время звучания:
01:03:51
Наличие сканов:
  • да
Релизёр (источник):
simple.i
Состав:
  • Muhammad Ali    Drumsaphy
  • Albert Ayler    Bagpipes, Composer, Recitation, Sax (Alto), Sax (Tenor), Vocals
  • Donald Ayler    Trumpet
  • Garnett Brown    Trombone
  • Call Cobbs    Electric Harpsichord
  • Burt Collins    Trumpet
  • Bert DeCoteaux    Arranger, Composer, Conductor
  • Bobby Few    Piano
  • Bill Folwell    Bass, Bass (Electric)
  • Joel Freedman    Cello
  • Milford Graves    Drums
  • Henry Grimes    Bass
  • Beaver Harris    Drums
  • Stafford James    Bass
  • Ashley Kahn    Liner Notes, Selection, Sequencing
  • Buddy Lucas    Sax (Baritone)
  • Rose Marie McCoy    Composer, Vocals
  • Ed Michel    Original Recording Producer
  • Sunny Murray    Drums
  • Joe Newman Quartet    Trumpet
  • Mary Maria Parks    Vocals
  • Seldon Powell    Flute, Sax (Tenor)
  • Bernard "Pretty" Purdie    Drums
  • Michel Samson    Violin
  • Alan Silva    Bass
  • Soul Singers    Vocals
  • Bob Thiele    Original Recording Producer
  • Henry Vestine    Composer, Guitar (Electric)
  • Lewis Worrell    Bass

01. Holy Ghost - 7:42
02. Truth Is Marching In - 12:40
03. Angels - 9:56
04. Love Cry - 3:57
05. Bells - 3:11
06. New Grass/Message From Albert - 3:55
07. Free at Last! - 3:08
08. Music Is the Healing Force of the Universe - 8:40
09. Water Music - 6:11
10. Untitled Duet - 4:31

Лог создания рипа
Exact Audio Copy V0.99 prebeta 5 from 4. May 2009

EAC extraction logfile from 7. July 2010, 3:12

Albert Ayler / The Impulse Story

Used drive  : HL-DT-STDVD-RAM GSA-H55N   Adapter: 0  ID: 2

Read mode               : Secure
Utilize accurate stream : Yes
Defeat audio cache      : Yes
Make use of C2 pointers : No

Read offset correction                      : 102
Overread into Lead-In and Lead-Out          : Yes
Fill up missing offset samples with silence : Yes
Delete leading and trailing silent blocks   : No
Null samples used in CRC calculations       : Yes
Used interface                              : Installed external ASPI interface
Gap handling                                : Appended to previous track

Used output format              : User Defined Encoder
Selected bitrate                : 128 kBit/s
Quality                         : High
Add ID3 tag                     : No
Command line compressor         : G:\Program Files\Exact Audio Copy\Encoder\flac.exe
Additional command line options : -V -8 -T "Genre=%m" -T "Artist=%a" -T "Title=%t" -T "Album=%g" -T "Date=%y" -T "Tracknumber=%n" -T "Comment=EACpb5 -8" %s

TOC of the extracted CD

     Track |   Start  |  Length  | Start sector | End sector
    ---------------------------------------------------------
        1  |  0:00.00 |  7:42.19 |         0    |    34668
        2  |  7:42.19 | 12:39.54 |     34669    |    91647
        3  | 20:21.73 |  9:55.65 |     91648    |   136337
        4  | 30:17.63 |  3:57.16 |    136338    |   154128
        5  | 34:15.04 |  3:10.49 |    154129    |   168427
        6  | 37:25.53 |  3:54.62 |    168428    |   186039
        7  | 41:20.40 |  3:08.32 |    186040    |   200171
        8  | 44:28.72 |  8:40.11 |    200172    |   239182
        9  | 53:09.08 |  6:10.56 |    239183    |   266988
       10  | 59:19.64 |  4:31.35 |    266989    |   287348

Track  1

     Filename F:\WAV\01 - Holy Ghost.wav

     Pre-gap length  0:00:02.00

     Peak level 89.7 %
     Track quality 100.0 %
     Test CRC A54080A6
     Copy CRC A54080A6
     Cannot be verified as accurate (confidence 1)  [C0C23531], AccurateRip returned [5590FB3A]
     Copy OK

Track  2

     Filename F:\WAV\02 - Truth Is Marching In.wav

     Peak level 100.0 %
     Track quality 100.0 %
     Test CRC 53B293F1
     Copy CRC 53B293F1
     Cannot be verified as accurate (confidence 1)  [B05E964A], AccurateRip returned [B48A78E3]
     Copy OK

Track  3

     Filename F:\WAV\03 - Angels.wav

     Peak level 66.7 %
     Track quality 100.0 %
     Test CRC 08503852
     Copy CRC 08503852
     Cannot be verified as accurate (confidence 1)  [81D08C20], AccurateRip returned [0414AB64]
     Copy OK

Track  4

     Filename F:\WAV\04 - Love Cry.wav

     Peak level 81.8 %
     Track quality 100.0 %
     Test CRC 0DBBE5C1
     Copy CRC 0DBBE5C1
     Cannot be verified as accurate (confidence 1)  [9DC25307], AccurateRip returned [A4038053]
     Copy OK

Track  5

     Filename F:\WAV\05 - Bells.wav

     Peak level 81.5 %
     Track quality 100.0 %
     Test CRC 1F91936E
     Copy CRC 1F91936E
     Cannot be verified as accurate (confidence 1)  [DD8B07A3], AccurateRip returned [4A23FD5D]
     Copy OK

Track  6

     Filename F:\WAV\06 - New Grass,Message From Albert.wav

     Peak level 88.8 %
     Track quality 100.0 %
     Test CRC 7F6028B6
     Copy CRC 7F6028B6
     Cannot be verified as accurate (confidence 1)  [58EB58F2], AccurateRip returned [AF1E6770]
     Copy OK

Track  7

     Filename F:\WAV\07 - Free at Last!.wav

     Peak level 96.1 %
     Track quality 100.0 %
     Test CRC ECBFCBFD
     Copy CRC ECBFCBFD
     Cannot be verified as accurate (confidence 1)  [95063D52], AccurateRip returned [1B234EBB]
     Copy OK

Track  8

     Filename F:\WAV\08 - Music Is the Healing Force of the Universe.wav

     Peak level 79.9 %
     Track quality 100.0 %
     Test CRC 98D01C93
     Copy CRC 98D01C93
     Cannot be verified as accurate (confidence 1)  [4D0F2D33], AccurateRip returned [3BADD809]
     Copy OK

Track  9

     Filename F:\WAV\09 - Water Music.wav

     Peak level 80.4 %
     Track quality 100.0 %
     Test CRC 8635C1E0
     Copy CRC 8635C1E0
     Cannot be verified as accurate (confidence 1)  [3AFA9B85], AccurateRip returned [8955D38E]
     Copy OK

Track 10

     Filename F:\WAV\10 - Untitled Duet.wav

     Peak level 68.2 %
     Track quality 100.0 %
     Test CRC E8AA8443
     Copy CRC E8AA8443
     Cannot be verified as accurate (confidence 1)  [ABFD5C35], AccurateRip returned [EC6776AB]
     Copy OK

No tracks could be verified as accurate
You may have a different pressing from the one(s) in the database

No errors occurred

End of status report
Содержание индексной карты (.CUE)
REM GENRE Jazz
REM DATE 2006
REM DISCID 840EF70A
REM COMMENT "ExactAudioCopy v0.99pb5"
CATALOG 0602498551035
PERFORMER "Albert Ayler"
TITLE "The Impulse Story"
FILE "01 - Holy Ghost.wav" WAVE
  TRACK 01 AUDIO
    TITLE "Holy Ghost"
    PERFORMER "Albert Ayler"
    ISRC USMC16554418
    INDEX 01 00:00:00
FILE "02 - Truth Is Marching In.wav" WAVE
  TRACK 02 AUDIO
    TITLE "Truth Is Marching In"
    PERFORMER "Albert Ayler"
    ISRC USMC16554418
    INDEX 01 00:00:00
FILE "03 - Angels.wav" WAVE
  TRACK 03 AUDIO
    TITLE "Angels"
    PERFORMER "Albert Ayler"
    ISRC USMC16654423
    INDEX 01 00:00:00
FILE "04 - Love Cry.wav" WAVE
  TRACK 04 AUDIO
    TITLE "Love Cry"
    PERFORMER "Albert Ayler"
    ISRC USMC16701398
    INDEX 01 00:00:00
FILE "05 - Bells.wav" WAVE
  TRACK 05 AUDIO
    TITLE "Bells"
    PERFORMER "Albert Ayler"
    ISRC USMC16701402
    INDEX 01 00:00:00
FILE "06 - New Grass,Message From Albert.wav" WAVE
  TRACK 06 AUDIO
    TITLE "New Grass/Message From Albert"
    PERFORMER "Albert Ayler"
    ISRC USUM70501830
    INDEX 01 00:00:00
FILE "07 - Free at Last!.wav" WAVE
  TRACK 07 AUDIO
    TITLE "Free at Last!"
    PERFORMER "Albert Ayler"
    ISRC USUM70501849
    INDEX 01 00:00:00
FILE "08 - Music Is the Healing Force of the Universe.wav" WAVE
  TRACK 08 AUDIO
    TITLE "Music Is the Healing Force of the Universe"
    PERFORMER "Albert Ayler"
    ISRC USMC16953546
    INDEX 01 00:00:00
FILE "09 - Water Music.wav" WAVE
  TRACK 09 AUDIO
    TITLE "Water Music"
    PERFORMER "Albert Ayler"
    ISRC USUM70603289
    INDEX 01 00:00:00
FILE "10 - Untitled Duet.wav" WAVE
  TRACK 10 AUDIO
    TITLE "Untitled Duet"
    PERFORMER "Albert Ayler"
    ISRC USUM70603290
    INDEX 01 00:00:00
Приватный:
Нет (DHT включён)
Размер:
415.06 Мб (435,225,807 байт) » файлов: 18
Участники:
2 раздают, 0 качают (2 участников всего)
Внешние участники:
2 раздают, 1 качают (3 участников всего) [ Обновить ]
13:04
198
RSS
Нет комментариев. Ваш будет первым!