Вы используете незарегистрированную версию компонента "Вкладки"!

Поиск

2005 Will Boulware - A Night In Tunisia {Eighty-Eight’s, Village} [DSD64]

2005 Will Boulware - A Night In Tunisia {Eighty-Eight’s, Village} [DSD64]
Стили:
Место записи:
Avatar Studios, New York City, USA
Номер по каталогу:
VRCL 18829
Битрейт аудио:
lossless
Доп. инфо:

Формат записи/Источник записи: [SACD-R][OF]
Наличие водяных знаков: Нет
Год издания/переиздания диска: 2005
Жанр: Jazz, Post Bop
Издатель (лейбл): Eighty-Eight’s / Village Records Inc.
Продолжительность: 00:51:45
Наличие сканов в содержимом раздачи: Только обложка альбома

Контейнер: ISO (*.iso)
Тип рипа: image
Разрядность: 64(2,8 MHz/1 Bit)
Формат: DSD
Количество каналов: 2.0

Recorded June 6, 2004
DSD Recording


Источник (релизер): jazzyman (PS³SACD)
https://www.sa-cd.net/showreviews/2820

Лог проверки качества
foobar2000 1.3.13 / Замер динамического диапазона (DR) 1.1.1
Дата отчёта:  2020-04-27 18:53:54

--------------------------------------------------------------------------------
Анализ:   Will Boulware / A Night In Tunisia
--------------------------------------------------------------------------------

DR         Пики         RMS           Продолжительность трека
--------------------------------------------------------------------------------
DR13      -4.32 дБ   -18.69 дБ      3:31 01-A Night In Tunisia
DR16      -4.45 дБ   -24.61 дБ      6:07 02-The Breeze And I
DR14      -4.24 дБ   -20.99 дБ      6:44 03-Yesterdays
DR14      -4.14 дБ   -19.64 дБ      3:40 04-Cleopatra's Dream
DR13      -4.22 дБ   -18.64 дБ      4:06 05-If I Were A Bell
DR14      -4.30 дБ   -20.84 дБ      5:21 06-Easy
DR13      -4.19 дБ   -19.65 дБ      6:34 07-What'd I Say
DR14      -7.52 дБ   -24.49 дБ      5:57 08-Pensive
DR14      -4.06 дБ   -20.72 дБ      5:55 09-The Fruit
DR14      -4.28 дБ   -20.07 дБ      3:50 10-Build Up
--------------------------------------------------------------------------------

Количество треков: 10
Реальные значения DR: DR14

Частота:   2822400 Гц / Частота PCM: 88200 Гц
Каналов:   2
Разрядность:   24
Битрейт:   5645 кбит/с
Кодек:   DSD64
================================================================================
Any questions - support@pro-jazz.com. Есть вопросы - support@pro-jazz.com
16:40
275
Нет комментариев. Ваш будет первым!