Поиск

2005 Kahil El'Zabar's Ritual Trio (with Billy Bang) - Live at the River East Art Center {Delmark} [24-48]

2005 Kahil El'Zabar's Ritual Trio (with Billy Bang) - Live at the River East Art Center {Delmark} [24-48]
Дата записи диска:
18 декабря 2004
Место записи:
River East Art Center
Дата издания диска:
17 мая 2005
Носитель:
WEB
Формат:
PCM
Тип рипа:
tracks
Контейнер:
FLAC (*.flac)
Количество каналов:
2.0
Разрядность/ЧД:
24/48
Битрейт аудио:
lossless
Время звучания:
01:07:54
Наличие сканов:
только обложка

Треклист:

01 - Big M (20:32)
02 - Return Of The Lost Tribe (13:36)
03 - Where Do You Want to Go (12:38)
04 - Be Exciting (04:41)
05 - Oof (16:25)

Состав:
  • Billy Bang     Violin (Electric)
  • Ari Brown     Composer, Sax (Tenor)
  • Eric Butkus     Engineer, Mastering, Mixing
  • Kahil El'Zabar     Composer, Drums, Kalimba, Percussion, Producer
  • Yosef Ben Israel     Bass, Double Bass
  • Robert G. Koester     Producer
  • Howard Mandel     Liner Notes
  • Steve Wagner     Engineer, Mastering, Mixing, Producer
Лог проверки качества
foobar2000 1.4.2 / Dynamic Range Meter 1.1.1
log date: 2021-08-08 07:04:27
--------------------------------------------------------------------------------
Analyzed: Kahil El'Zabar's Ritual Trio/Billy Bang / Live at the River East Art Center
--------------------------------------------------------------------------------
DR         Peak         RMS     Duration Track
--------------------------------------------------------------------------------
DR13      -0.10 dB   -15.86 dB     20:32 01-Big M
DR12       0.00 dB   -15.16 dB     13:36 02-Return Of The Lost Tribe
DR9       -0.03 dB   -11.25 dB     12:38 03-Where Do You Want to Go?
DR15      -4.25 dB   -23.59 dB      4:42 04-Be Exciting
DR16      -0.17 dB   -19.91 dB     16:25 05-Oof
--------------------------------------------------------------------------------
Number of tracks:  5
Official DR value: DR13
Samplerate:        48000 Hz
Channels:          2
Bits per sample:   24
Bitrate:           1435 kbps
Codec:             FLAC
================================================================================
По всем вопросам пишите личное сообщение пользователю M0p94ok.
09:54
210
Нет комментариев. Ваш будет первым!