Поиск

2005 Freddie Slack - Mosaic Select 18 [3CD]

2005 Freddie Slack - Mosaic Select 18 [3CD]
Стили:
Издатель (лейбл):
Треклист:
Freddie Slack - Mosaic Select 18
Жанр: Boogie-Woogie, Swing
Носитель: CD
Страна-производитель диска: США
Год издания: 2005
Издатель (лейбл): Mosaic Records
Номер по каталогу: MS-018
Аудиокодек: FLAC (*.flac)
Тип рипа: tracks+.cue
Битрейт аудио: lossless
Продолжительность: 3:28:22
Источник (релизер): Chiptune (what)
Наличие сканов в содержимом раздачи: да
 
CD1 {72:15}
01. Doll Dance (3:01)
02. Cow Cow Boogie (3:15)
03. The Air Minded Executive (2:48)
04. He's My Guy (2:42)
05. Mister Five by Five (3:03)
06. The Thrill Is Gone (2:58)
07. Riffette (3:03)
08. I Got a Break Baby (3:18)
09. Mean Old World (2:56)
10. Old Rob Roy (3:13)
11. Waitin' for the Evening Mail (3:16)
12. Wreck of the Old 97 (2:37)
13. Get on Board, Little Chillun (3:04)
14. I Lost My Sugar in Salt Lake City (3:11)
15. Mr. Anthony's Blues (2:34)
16. Small Batch O'Nod (3:02)
17. Furlough Fling (2:45)
18. Ain't That Just Like a Man (3:09)
19. The Gee Chi Love Song (3:00)
20. The Gee Chi Love Song (3:01)
21. Cuban Sugar Mill (3:08)
22. Sit and Nip (3:04)
23. Slightly Barbaric (3:12)
24. Bashful Baby Blues (2:55)
 
 
Лог создания рипа
Exact Audio Copy V1.0 beta 3 from 29. August 2011
EAC extraction logfile from 22. November 2014, 2:20
Freddie Slack / Mosaic 18 Select - Freddie Slack - CD1
Used drive  : Optiarc DVD RW AD-5240S   Adapter: 0  ID: 2
Read mode               : Secure
Utilize accurate stream : Yes
Defeat audio cache      : Yes
Make use of C2 pointers : No
Read offset correction                      : 48
Overread into Lead-In and Lead-Out          : No
Fill up missing offset samples with silence : Yes
Delete leading and trailing silent blocks   : No
Null samples used in CRC calculations       : Yes
Used interface                              : Native Win32 interface for Win NT & 2000
Gap handling                                : Appended to previous track
Used output format              : User Defined Encoder
Selected bitrate                : 1024 kBit/s
Quality                         : High
Add ID3 tag                     : No
Command line compressor         : C:\Program Files\Exact Audio Copy\FLAC\FLAC.EXE
Additional command line options : -8 -V -T "ARTIST=%artist%" -T "TITLE=%title%" -T "ALBUM=%albumtitle%" -T "DATE=%year%" -T "TRACKNUMBER=%tracknr%" -T "GENRE=%genre%" -T "PERFORMER=%albuminterpret%" -T "COMPOSER=%composer%" %haslyrics%--tag-from-file=LYRICS="%lyricsfile%"%haslyrics% -T "ALBUMARTIST=%albumartist%" -T "DISCNUMBER=%cdnumber%" -T "TOTALDISCS=%totalcds%" -T "TOTALTRACKS=%numtracks%" -T "COMMENT=%comment%" %source% -o %dest%
TOC of the extracted CD
     Track |   Start  |  Length  | Start sector | End sector
    ---------------------------------------------------------
        1  |  0:00.00 |  3:00.61 |         0    |    13560
        2  |  3:00.61 |  3:14.50 |     13561    |    28160
        3  |  6:15.36 |  2:47.43 |     28161    |    40728
        4  |  9:03.04 |  2:42.13 |     40729    |    52891
        5  | 11:45.17 |  3:03.23 |     52892    |    66639
        6  | 14:48.40 |  2:57.74 |     66640    |    79988
        7  | 17:46.39 |  3:02.38 |     79989    |    93676
        8  | 20:49.02 |  3:18.03 |     93677    |   108529
        9  | 24:07.05 |  2:55.70 |    108530    |   121724
       10  | 27:03.00 |  3:13.28 |    121725    |   136227
       11  | 30:16.28 |  3:15.53 |    136228    |   150905
       12  | 33:32.06 |  2:36.43 |    150906    |   162648
       13  | 36:08.49 |  3:04.33 |    162649    |   176481
       14  | 39:13.07 |  3:11.20 |    176482    |   190826
       15  | 42:24.27 |  2:34.19 |    190827    |   202395
       16  | 44:58.46 |  3:01.72 |    202396    |   216042
       17  | 48:00.43 |  2:45.12 |    216043    |   228429
       18  | 50:45.55 |  3:09.11 |    228430    |   242615
       19  | 53:54.66 |  2:59.69 |    242616    |   256109
       20  | 56:54.60 |  3:01.26 |    256110    |   269710
       21  | 59:56.11 |  3:07.68 |    269711    |   283803
       22  | 63:04.04 |  3:03.51 |    283804    |   297579
       23  | 66:07.55 |  3:11.38 |    297580    |   311942
       24  | 69:19.18 |  2:54.70 |    311943    |   325062
Track  1
     Filename Z:\# What.cd\Freddie Slack - Mosaic 18 Select - Freddie Slack\Freddie Slack - Mosaic 18 Select - Freddie Slack (2005) [FLAC] {Mosaic MS-018}\Disc 01\01 - Doll Dance.wav
     Pre-gap length  0:00:02.00
     Peak level 99.0 %
     Extraction speed 2.3 X
     Track quality 100.0 %
     Test CRC 3F584A5D
     Copy CRC 3F584A5D
     Accurately ripped (confidence 3)  [5219422D]  (AR v1)
     Copy OK
Track  2
     Filename Z:\# What.cd\Freddie Slack - Mosaic 18 Select - Freddie Slack\Freddie Slack - Mosaic 18 Select - Freddie Slack (2005) [FLAC] {Mosaic MS-018}\Disc 01\02 - Cow Cow Boogie.wav
     Peak level 100.0 %
     Extraction speed 2.5 X
     Track quality 100.0 %
     Test CRC 6F96078A
     Copy CRC 6F96078A
     Accurately ripped (confidence 3)  [D918C743]  (AR v1)
     Copy OK
Track  3
     Filename Z:\# What.cd\Freddie Slack - Mosaic 18 Select - Freddie Slack\Freddie Slack - Mosaic 18 Select - Freddie Slack (2005) [FLAC] {Mosaic MS-018}\Disc 01\03 - The Air Minded Executive.wav
     Peak level 100.0 %
     Extraction speed 2.6 X
     Track quality 100.0 %
     Test CRC 72F4AE4F
     Copy CRC 72F4AE4F
     Accurately ripped (confidence 3)  [4B3E0591]  (AR v1)
     Copy OK
Track  4
     Filename Z:\# What.cd\Freddie Slack - Mosaic 18 Select - Freddie Slack\Freddie Slack - Mosaic 18 Select - Freddie Slack (2005) [FLAC] {Mosaic MS-018}\Disc 01\04 - He's My Guy.wav
     Peak level 100.0 %
     Extraction speed 2.8 X
     Track quality 100.0 %
     Test CRC 2992FE37
     Copy CRC 2992FE37
     Accurately ripped (confidence 3)  [8E389523]  (AR v1)
     Copy OK
Track  5
     Filename Z:\# What.cd\Freddie Slack - Mosaic 18 Select - Freddie Slack\Freddie Slack - Mosaic 18 Select - Freddie Slack (2005) [FLAC] {Mosaic MS-018}\Disc 01\05 - Mister Five By Five.wav
     Peak level 100.0 %
     Extraction speed 3.0 X
     Track quality 100.0 %
     Test CRC AA64533F
     Copy CRC AA64533F
     Accurately ripped (confidence 3)  [AAAB28C7]  (AR v1)
     Copy OK
Track  6
     Filename Z:\# What.cd\Freddie Slack - Mosaic 18 Select - Freddie Slack\Freddie Slack - Mosaic 18 Select - Freddie Slack (2005) [FLAC] {Mosaic MS-018}\Disc 01\06 - The Thrill Is Gone.wav
     Peak level 99.4 %
     Extraction speed 3.0 X
     Track quality 100.0 %
     Test CRC D52AF341
     Copy CRC D52AF341
     Accurately ripped (confidence 3)  [C29F5B42]  (AR v1)
     Copy OK
Track  7
     Filename Z:\# What.cd\Freddie Slack - Mosaic 18 Select - Freddie Slack\Freddie Slack - Mosaic 18 Select - Freddie Slack (2005) [FLAC] {Mosaic MS-018}\Disc 01\07 - Riffette.wav
     Peak level 100.0 %
     Extraction speed 3.2 X
     Track quality 100.0 %
     Test CRC 22086248
     Copy CRC 22086248
     Accurately ripped (confidence 3)  [113C0EBD]  (AR v1)
     Copy OK
Track  8
     Filename Z:\# What.cd\Freddie Slack - Mosaic 18 Select - Freddie Slack\Freddie Slack - Mosaic 18 Select - Freddie Slack (2005) [FLAC] {Mosaic MS-018}\Disc 01\08 - I Got A Break Baby.wav
     Peak level 100.0 %
     Extraction speed 3.3 X
     Track quality 100.0 %
     Test CRC 7C6F59CF
     Copy CRC 7C6F59CF
     Accurately ripped (confidence 3)  [9E07267D]  (AR v1)
     Copy OK
Track  9
     Filename Z:\# What.cd\Freddie Slack - Mosaic 18 Select - Freddie Slack\Freddie Slack - Mosaic 18 Select - Freddie Slack (2005) [FLAC] {Mosaic MS-018}\Disc 01\09 - Mean Old World.wav
     Peak level 98.2 %
     Extraction speed 2.8 X
     Track quality 99.9 %
     Test CRC D4B8CC1D
     Copy CRC D4B8CC1D
     Accurately ripped (confidence 3)  [D8C5B70A]  (AR v1)
     Copy OK
Track 10
     Filename Z:\# What.cd\Freddie Slack - Mosaic 18 Select - Freddie Slack\Freddie Slack - Mosaic 18 Select - Freddie Slack (2005) [FLAC] {Mosaic MS-018}\Disc 01\10 - Old Rob Roy.wav
     Peak level 100.0 %
     Extraction speed 3.5 X
     Track quality 100.0 %
     Test CRC BB12495E
     Copy CRC BB12495E
     Accurately ripped (confidence 3)  [89AD2182]  (AR v1)
     Copy OK
Track 11
     Filename Z:\# What.cd\Freddie Slack - Mosaic 18 Select - Freddie Slack\Freddie Slack - Mosaic 18 Select - Freddie Slack (2005) [FLAC] {Mosaic MS-018}\Disc 01\11 - Waitin' For The Evening Mail.wav
     Peak level 98.1 %
     Extraction speed 3.7 X
     Track quality 100.0 %
     Test CRC 1534B2D1
     Copy CRC 1534B2D1
     Accurately ripped (confidence 3)  [0B0102A5]  (AR v1)
     Copy OK
Track 12
     Filename Z:\# What.cd\Freddie Slack - Mosaic 18 Select - Freddie Slack\Freddie Slack - Mosaic 18 Select - Freddie Slack (2005) [FLAC] {Mosaic MS-018}\Disc 01\12 - Wreck Of The Old 97.wav
     Peak level 99.8 %
     Extraction speed 3.7 X
     Track quality 100.0 %
     Test CRC 86E396A6
     Copy CRC 86E396A6
     Accurately ripped (confidence 3)  [BFFB789F]  (AR v1)
     Copy OK
Track 13
     Filename Z:\# What.cd\Freddie Slack - Mosaic 18 Select - Freddie Slack\Freddie Slack - Mosaic 18 Select - Freddie Slack (2005) [FLAC] {Mosaic MS-018}\Disc 01\13 - Get On Board, Little Chillun.wav
     Peak level 100.0 %
     Extraction speed 3.8 X
     Track quality 100.0 %
     Test CRC EBC662A7
     Copy CRC EBC662A7
     Accurately ripped (confidence 3)  [A628CA40]  (AR v1)
     Copy OK
Track 14
     Filename Z:\# What.cd\Freddie Slack - Mosaic 18 Select - Freddie Slack\Freddie Slack - Mosaic 18 Select - Freddie Slack (2005) [FLAC] {Mosaic MS-018}\Disc 01\14 - I Lost My Sugar In Salt Lake City.wav
     Peak level 92.9 %
     Extraction speed 4.1 X
     Track quality 100.0 %
     Test CRC F1B861DF
     Copy CRC F1B861DF
     Accurately ripped (confidence 3)  [97696116]  (AR v1)
     Copy OK
Track 15
     Filename Z:\# What.cd\Freddie Slack - Mosaic 18 Select - Freddie Slack\Freddie Slack - Mosaic 18 Select - Freddie Slack (2005) [FLAC] {Mosaic MS-018}\Disc 01\15 - Mr. Anthony's Blues.wav
     Peak level 100.0 %
     Extraction speed 4.0 X
     Track quality 100.0 %
     Test CRC D6D23210
     Copy CRC D6D23210
     Accurately ripped (confidence 3)  [4F890C20]  (AR v1)
     Copy OK
Track 16
     Filename Z:\# What.cd\Freddie Slack - Mosaic 18 Select - Freddie Slack\Freddie Slack - Mosaic 18 Select - Freddie Slack (2005) [FLAC] {Mosaic MS-018}\Disc 01\16 - Small Batch O'Nod.wav
     Peak level 100.0 %
     Extraction speed 4.1 X
     Track quality 100.0 %
     Test CRC 558AFC44
     Copy CRC 558AFC44
     Accurately ripped (confidence 3)  [A79D7D9F]  (AR v1)
     Copy OK
Track 17
     Filename Z:\# What.cd\Freddie Slack - Mosaic 18 Select - Freddie Slack\Freddie Slack - Mosaic 18 Select - Freddie Slack (2005) [FLAC] {Mosaic MS-018}\Disc 01\17 - Furlough Fling.wav
     Peak level 100.0 %
     Extraction speed 4.2 X
     Track quality 100.0 %
     Test CRC BE05C878
     Copy CRC BE05C878
     Accurately ripped (confidence 3)  [BC431EC0]  (AR v1)
     Copy OK
Track 18
     Filename Z:\# What.cd\Freddie Slack - Mosaic 18 Select - Freddie Slack\Freddie Slack - Mosaic 18 Select - Freddie Slack (2005) [FLAC] {Mosaic MS-018}\Disc 01\18 - Ain't That Just Like A Man.wav
     Peak level 98.3 %
     Extraction speed 4.3 X
     Track quality 100.0 %
     Test CRC 27236F1C
     Copy CRC 27236F1C
     Accurately ripped (confidence 3)  [84210D3A]  (AR v1)
     Copy OK
Track 19
     Filename Z:\# What.cd\Freddie Slack - Mosaic 18 Select - Freddie Slack\Freddie Slack - Mosaic 18 Select - Freddie Slack (2005) [FLAC] {Mosaic MS-018}\Disc 01\19 - The Gee Chi Love Song.wav
     Peak level 100.0 %
     Extraction speed 3.6 X
     Track quality 99.9 %
     Test CRC E12D376E
     Copy CRC E12D376E
     Accurately ripped (confidence 3)  [23453205]  (AR v1)
     Copy OK
Track 20
     Filename Z:\# What.cd\Freddie Slack - Mosaic 18 Select - Freddie Slack\Freddie Slack - Mosaic 18 Select - Freddie Slack (2005) [FLAC] {Mosaic MS-018}\Disc 01\20 - The Gee Chi Love Song (tk 2).wav
     Peak level 100.0 %
     Extraction speed 4.5 X
     Track quality 100.0 %
     Test CRC C9818DA0
     Copy CRC C9818DA0
     Accurately ripped (confidence 3)  [82608D02]  (AR v1)
     Copy OK
Track 21
     Filename Z:\# What.cd\Freddie Slack - Mosaic 18 Select - Freddie Slack\Freddie Slack - Mosaic 18 Select - Freddie Slack (2005) [FLAC] {Mosaic MS-018}\Disc 01\21 - Cuban Sugar Mill.wav
     Peak level 92.8 %
     Extraction speed 4.0 X
     Track quality 99.9 %
     Test CRC E3B7B0FC
     Copy CRC E3B7B0FC
     Accurately ripped (confidence 3)  [3816F8FA]  (AR v1)
     Copy OK
Track 22
     Filename Z:\# What.cd\Freddie Slack - Mosaic 18 Select - Freddie Slack\Freddie Slack - Mosaic 18 Select - Freddie Slack (2005) [FLAC] {Mosaic MS-018}\Disc 01\22 - Sit And Nip.wav
     Peak level 100.0 %
     Extraction speed 4.8 X
     Track quality 100.0 %
     Test CRC 9BCFAF12
     Copy CRC 9BCFAF12
     Accurately ripped (confidence 3)  [F0653BBE]  (AR v1)
     Copy OK
Track 23
     Filename Z:\# What.cd\Freddie Slack - Mosaic 18 Select - Freddie Slack\Freddie Slack - Mosaic 18 Select - Freddie Slack (2005) [FLAC] {Mosaic MS-018}\Disc 01\23 - Slightly Barbaric.wav
     Peak level 100.0 %
     Extraction speed 4.8 X
     Track quality 100.0 %
     Test CRC DE8E08D2
     Copy CRC DE8E08D2
     Accurately ripped (confidence 3)  [D9DB336E]  (AR v1)
     Copy OK
Track 24
     Filename Z:\# What.cd\Freddie Slack - Mosaic 18 Select - Freddie Slack\Freddie Slack - Mosaic 18 Select - Freddie Slack (2005) [FLAC] {Mosaic MS-018}\Disc 01\24 - Bashful Baby Blues.wav
     Peak level 98.0 %
     Extraction speed 4.2 X
     Track quality 99.9 %
     Test CRC B5DE0198
     Copy CRC B5DE0198
     Accurately ripped (confidence 3)  [AC874AF4]  (AR v1)
     Copy OK
All tracks accurately ripped
No errors occurred
End of status report
---- CUETools DB Plugin V2.1.4
[CTDB TOCID: cimT1OEVO1uCUU2bmS0BHiHGFxQ-] disk not present in database
Submit result: cimT1OEVO1uCUU2bmS0BHiHGFxQ- has been uploaded
==== Log checksum B965FA9C9A8EC15C087F9E101D6ECEF1E5CC188CEE2C36E1F3355BFAF0AF9CF6 ====
 
 
Содержание индексной карты (.CUE)
REM GENRE Jazz
REM DATE 2005
REM DISCID 6610EE18
REM COMMENT "ExactAudioCopy v1.0b3"
PERFORMER "Freddie Slack"
TITLE "Mosaic Select 18 CD1"
FILE "01 - Doll Dance.wav" WAVE
  TRACK 01 AUDIO
    TITLE "Doll Dance"
    PERFORMER "Freddie Slack"
    INDEX 01 00:00:00
FILE "02 - Cow Cow Boogie.wav" WAVE
  TRACK 02 AUDIO
    TITLE "Cow Cow Boogie"
    PERFORMER "Freddie Slack"
    INDEX 01 00:00:00
FILE "03 - The Air Minded Executive.wav" WAVE
  TRACK 03 AUDIO
    TITLE "The Air Minded Executive"
    PERFORMER "Freddie Slack"
    INDEX 01 00:00:00
FILE "04 - He's My Guy.wav" WAVE
  TRACK 04 AUDIO
    TITLE "He's My Guy"
    PERFORMER "Freddie Slack"
    INDEX 01 00:00:00
FILE "05 - Mister Five by Five.wav" WAVE
  TRACK 05 AUDIO
    TITLE "Mister Five by Five"
    PERFORMER "Freddie Slack"
    INDEX 01 00:00:00
FILE "06 - The Thrill Is Gone.wav" WAVE
  TRACK 06 AUDIO
    TITLE "The Thrill Is Gone"
    PERFORMER "Freddie Slack"
    INDEX 01 00:00:00
FILE "07 - Riffette.wav" WAVE
  TRACK 07 AUDIO
    TITLE "Riffette"
    PERFORMER "Freddie Slack"
    INDEX 01 00:00:00
FILE "08 - I Got a Break Baby.wav" WAVE
  TRACK 08 AUDIO
    TITLE "I Got a Break Baby"
    PERFORMER "Freddie Slack"
    INDEX 01 00:00:00
FILE "09 - Mean Old World.wav" WAVE
  TRACK 09 AUDIO
    TITLE "Mean Old World"
    PERFORMER "Freddie Slack"
    INDEX 01 00:00:00
FILE "10 - Old Rob Roy.wav" WAVE
  TRACK 10 AUDIO
    TITLE "Old Rob Roy"
    PERFORMER "Freddie Slack"
    INDEX 01 00:00:00
FILE "11 - Waitin' for the Evening Mail.wav" WAVE
  TRACK 11 AUDIO
    TITLE "Waitin' for the Evening Mail"
    PERFORMER "Freddie Slack"
    INDEX 01 00:00:00
FILE "12 - Wreck of the Old 97.wav" WAVE
  TRACK 12 AUDIO
    TITLE "Wreck of the Old 97"
    PERFORMER "Freddie Slack"
    INDEX 01 00:00:00
FILE "13 - Get on Board, Little Chillun.wav" WAVE
  TRACK 13 AUDIO
    TITLE "Get on Board, Little Chillun"
    PERFORMER "Freddie Slack"
    INDEX 01 00:00:00
FILE "14 - I Lost My Sugar in Salt Lake City.wav" WAVE
  TRACK 14 AUDIO
    TITLE "I Lost My Sugar in Salt Lake City"
    PERFORMER "Freddie Slack"
    INDEX 01 00:00:00
FILE "15 - Mr. Anthony's Blues.wav" WAVE
  TRACK 15 AUDIO
    TITLE "Mr. Anthony's Blues"
    PERFORMER "Freddie Slack"
    INDEX 01 00:00:00
FILE "16 - Small Batch O'Nod.wav" WAVE
  TRACK 16 AUDIO
    TITLE "Small Batch O'Nod"
    PERFORMER "Freddie Slack"
    INDEX 01 00:00:00
FILE "17 - Furlough Fling.wav" WAVE
  TRACK 17 AUDIO
    TITLE "Furlough Fling"
    PERFORMER "Freddie Slack"
    INDEX 01 00:00:00
FILE "18 - Ain't That Just Like a Man.wav" WAVE
  TRACK 18 AUDIO
    TITLE "Ain't That Just Like a Man"
    PERFORMER "Freddie Slack"
    INDEX 01 00:00:00
FILE "19 - The Gee Chi Love Song.wav" WAVE
  TRACK 19 AUDIO
    TITLE "The Gee Chi Love Song"
    PERFORMER "Freddie Slack"
    INDEX 01 00:00:00
FILE "20 - The Gee Chi Love Song.wav" WAVE
  TRACK 20 AUDIO
    TITLE "The Gee Chi Love Song"
    PERFORMER "Freddie Slack"
    INDEX 01 00:00:00
FILE "21 - Cuban Sugar Mill.wav" WAVE
  TRACK 21 AUDIO
    TITLE "Cuban Sugar Mill"
    PERFORMER "Freddie Slack"
    INDEX 01 00:00:00
FILE "22 - Sit and Nip.wav" WAVE
  TRACK 22 AUDIO
    TITLE "Sit and Nip"
    PERFORMER "Freddie Slack"
    INDEX 01 00:00:00
FILE "23 - Slightly Barbaric.wav" WAVE
  TRACK 23 AUDIO
    TITLE "Slightly Barbaric"
    PERFORMER "Freddie Slack"
    INDEX 01 00:00:00
FILE "24 - Bashful Baby Blues.wav" WAVE
  TRACK 24 AUDIO
    TITLE "Bashful Baby Blues"
    PERFORMER "Freddie Slack"
    INDEX 01 00:00:00
 
 
Отчет CUETools
[CUETools log; Date: 23.11.2014 23:58:50; Version: 2.1.5]
[CTDB TOCID: cimT1OEVO1uCUU2bmS0BHiHGFxQ-] found.
Track | CTDB Status
  1   | (1/1) Accurately ripped
  2   | (1/1) Accurately ripped
  3   | (1/1) Accurately ripped
  4   | (1/1) Accurately ripped
  5   | (1/1) Accurately ripped
  6   | (1/1) Accurately ripped
  7   | (1/1) Accurately ripped
  8   | (1/1) Accurately ripped
  9   | (1/1) Accurately ripped
 10   | (1/1) Accurately ripped
 11   | (1/1) Accurately ripped
 12   | (1/1) Accurately ripped
 13   | (1/1) Accurately ripped
 14   | (1/1) Accurately ripped
 15   | (1/1) Accurately ripped
 16   | (1/1) Accurately ripped
 17   | (1/1) Accurately ripped
 18   | (1/1) Accurately ripped
 19   | (1/1) Accurately ripped
 20   | (1/1) Accurately ripped
 21   | (1/1) Accurately ripped
 22   | (1/1) Accurately ripped
 23   | (1/1) Accurately ripped
 24   | (1/1) Accurately ripped
[AccurateRip ID: 003de674-0430fbb4-6610ee18] found.
Track   [  CRC   |   V2   ] Status
 01     [5219422d|2ae8e139] (3+0/3) Accurately ripped
 02     [d918c743|a768fb88] (3+0/3) Accurately ripped
 03     [4b3e0591|30a41d63] (3+0/3) Accurately ripped
 04     [8e389523|db68fb1f] (3+0/3) Accurately ripped
 05     [aaab28c7|a2e0e570] (3+0/3) Accurately ripped
 06     [c29f5b42|948ad65a] (3+0/3) Accurately ripped
 07     [113c0ebd|c0e16c29] (3+0/3) Accurately ripped
 08     [9e07267d|03ed4722] (3+0/3) Accurately ripped
 09     [d8c5b70a|f3c421bc] (3+0/3) Accurately ripped
 10     [89ad2182|f220cdc8] (3+0/3) Accurately ripped
 11     [0b0102a5|1b1bc3a5] (3+0/3) Accurately ripped
 12     [bffb789f|8b4afdcb] (3+0/3) Accurately ripped
 13     [a628ca40|223b2f4a] (3+0/3) Accurately ripped
 14     [97696116|24f8d4d8] (3+0/3) Accurately ripped
 15     [4f890c20|4cb78fd0] (3+0/3) Accurately ripped
 16     [a79d7d9f|f477d6c4] (3+0/3) Accurately ripped
 17     [bc431ec0|d44f1b46] (3+0/3) Accurately ripped
 18     [84210d3a|a1e20881] (3+0/3) Accurately ripped
 19     [23453205|3cb88b70] (3+0/3) Accurately ripped
 20     [82608d02|a45bf1ee] (3+0/3) Accurately ripped
 21     [3816f8fa|01ac49a6] (3+0/3) Accurately ripped
 22     [f0653bbe|d11a4d05] (3+0/3) Accurately ripped
 23     [d9db336e|928222ff] (3+0/3) Accurately ripped
 24     [ac874af4|beb4537b] (3+0/3) Accurately ripped
Track Peak [ CRC32  ] [W/O NULL] [  LOG   ]
 --  100,0 [B68FC741] [890B0A92]
 01   99,0 [3F584A5D] [32046B29]   CRC32
 02  100,0 [6F96078A] [9A7F11EC]   CRC32
 03  100,0 [72F4AE4F] [F0940E62]   CRC32
 04  100,0 [2992FE37] [89AD9C62]   CRC32
 05  100,0 [AA64533F] [AAC734D6]   CRC32
 06   99,4 [D52AF341] [A3664411]   CRC32
 07  100,0 [22086248] [C3B389BC]   CRC32
 08  100,0 [7C6F59CF] [FAADA24C]   CRC32
 09   98,2 [D4B8CC1D] [07EBAA10]   CRC32
 10  100,0 [BB12495E] [D31D27F2]   CRC32
 11   98,1 [1534B2D1] [0E9FE912]   CRC32
 12   99,8 [86E396A6] [106EE619]   CRC32
 13  100,0 [EBC662A7] [EAC7442B]   CRC32
 14   92,9 [F1B861DF] [FC46F2FE]   CRC32
 15  100,0 [D6D23210] [54488414]   CRC32
 16  100,0 [558AFC44] [5C35C0DA]   CRC32
 17  100,0 [BE05C878] [61D68E5C]   CRC32
 18   98,3 [27236F1C] [5FD2317B]   CRC32
 19  100,0 [E12D376E] [A2E4F948]   CRC32
 20  100,0 [C9818DA0] [C52B71EA]   CRC32
 21   92,8 [E3B7B0FC] [839F1811]   CRC32
 22  100,0 [9BCFAF12] [01D174CF]   CRC32
 23  100,0 [DE8E08D2] [D72E77EC]   CRC32
 24   98,0 [B5DE0198] [FC7BFCB2]   CRC32
 
 
CD2 {70:21}
01. Soft Jive (3:08)
02. A Kiss Goodnight (2:47)
03. A Cat's Ninth Life (2:41)
04. Beverly Boogie (2:43)
05. Rib Joint (2:55)
06. Behind the Eight Beat (2:47)
07. Southpaw Serenade (2:46)
08. Kitten on the Keys (2:37)
09. Strange Cargo (3:02)
10. Blackout Boogie (2:33)
11. The House of Blue Lights (2:53)
12. Hey Mr. Postman (3:04)
13. Your Conscience Tells You So (2:53)
14. Pig Foot Pete (2:54)
15. Blackout Boogie (2:28)
16. Is I Gotta Practice, Ma? (2:42)
17. On the Road to Mandalin (2:24)
18. The H.C. Potter's Ball (2:39)
19. The Necessary Evil Blues (3:13)
20. Half After (2:39)
21. Cocktail Repartee (2:50)
22. What Is This Thing Called Rebop? (3:04)
23. The Brown Danube (2:59)
24. Boogie in G (2:43)
25. Lullaby (2:57)
 
 
Лог создания рипа
Exact Audio Copy V1.0 beta 3 from 29. August 2011
EAC extraction logfile from 22. November 2014, 16:10
Freddie Slack / Freddie Slack - Mosaic 18 Select - Freddie Slack - CD2
Used drive  : Optiarc DVD RW AD-5240S   Adapter: 0  ID: 2
Read mode               : Secure
Utilize accurate stream : Yes
Defeat audio cache      : Yes
Make use of C2 pointers : No
Read offset correction                      : 48
Overread into Lead-In and Lead-Out          : No
Fill up missing offset samples with silence : Yes
Delete leading and trailing silent blocks   : No
Null samples used in CRC calculations       : Yes
Used interface                              : Native Win32 interface for Win NT & 2000
Gap handling                                : Appended to previous track
Used output format              : User Defined Encoder
Selected bitrate                : 1024 kBit/s
Quality                         : High
Add ID3 tag                     : No
Command line compressor         : C:\Program Files\Exact Audio Copy\FLAC\FLAC.EXE
Additional command line options : -8 -V -T "ARTIST=%artist%" -T "TITLE=%title%" -T "ALBUM=%albumtitle%" -T "DATE=%year%" -T "TRACKNUMBER=%tracknr%" -T "GENRE=%genre%" -T "PERFORMER=%albuminterpret%" -T "COMPOSER=%composer%" %haslyrics%--tag-from-file=LYRICS="%lyricsfile%"%haslyrics% -T "ALBUMARTIST=%albumartist%" -T "DISCNUMBER=%cdnumber%" -T "TOTALDISCS=%totalcds%" -T "TOTALTRACKS=%numtracks%" -T "COMMENT=%comment%" %source% -o %dest%
TOC of the extracted CD
     Track |   Start  |  Length  | Start sector | End sector
    ---------------------------------------------------------
        1  |  0:00.00 |  3:08.29 |         0    |    14128
        2  |  3:08.29 |  2:46.61 |     14129    |    26639
        3  |  5:55.15 |  2:40.69 |     26640    |    38708
        4  |  8:36.09 |  2:42.63 |     38709    |    50921
        5  | 11:18.72 |  2:55.18 |     50922    |    64064
        6  | 14:14.15 |  2:46.54 |     64065    |    76568
        7  | 17:00.69 |  2:45.58 |     76569    |    89001
        8  | 19:46.52 |  2:37.28 |     89002    |   100804
        9  | 22:24.05 |  3:01.64 |    100805    |   114443
       10  | 25:25.69 |  2:33.33 |    114444    |   125951
       11  | 27:59.27 |  2:53.03 |    125952    |   138929
       12  | 30:52.30 |  3:04.11 |    138930    |   152740
       13  | 33:56.41 |  2:52.44 |    152741    |   165684
       14  | 36:49.10 |  2:54.22 |    165685    |   178756
       15  | 39:43.32 |  2:27.44 |    178757    |   189825
       16  | 42:11.01 |  2:41.53 |    189826    |   201953
       17  | 44:52.54 |  2:24.20 |    201954    |   212773
       18  | 47:16.74 |  2:39.11 |    212774    |   224709
       19  | 49:56.10 |  3:13.12 |    224710    |   239196
       20  | 53:09.22 |  2:38.53 |    239197    |   251099
       21  | 55:48.00 |  2:49.42 |    251100    |   263816
       22  | 58:37.42 |  3:04.17 |    263817    |   277633
       23  | 61:41.59 |  2:58.67 |    277634    |   291050
       24  | 64:40.51 |  2:43.03 |    291051    |   303278
       25  | 67:23.54 |  2:57.25 |    303279    |   316578
Track  1
     Filename Z:\# What.cd\Freddie Slack - Mosaic 18 Select - Freddie Slack\Freddie Slack - Mosaic 18 Select - Freddie Slack (2005) [FLAC] {Mosaic MS-018}\Disc 02\01 - Soft Jive.wav
     Pre-gap length  0:00:02.00
     Peak level 100.0 %
     Extraction speed 2.1 X
     Track quality 100.0 %
     Test CRC 359FFFDE
     Copy CRC 359FFFDE
     Accurately ripped (confidence 3)  [CFC97C81]  (AR v1)
     Copy OK
Track  2
     Filename Z:\# What.cd\Freddie Slack - Mosaic 18 Select - Freddie Slack\Freddie Slack - Mosaic 18 Select - Freddie Slack (2005) [FLAC] {Mosaic MS-018}\Disc 02\02 - A Kiss Goodnight.wav
     Peak level 100.0 %
     Extraction speed 2.4 X
     Track quality 100.0 %
     Test CRC 4FCCAA0E
     Copy CRC 4FCCAA0E
     Accurately ripped (confidence 3)  [B1C62D00]  (AR v1)
     Copy OK
Track  3
     Filename Z:\# What.cd\Freddie Slack - Mosaic 18 Select - Freddie Slack\Freddie Slack - Mosaic 18 Select - Freddie Slack (2005) [FLAC] {Mosaic MS-018}\Disc 02\03 - A Cat's Ninth Life.wav
     Peak level 87.2 %
     Extraction speed 2.5 X
     Track quality 100.0 %
     Test CRC 20A3A17D
     Copy CRC 20A3A17D
     Accurately ripped (confidence 3)  [4C952738]  (AR v1)
     Copy OK
Track  4
     Filename Z:\# What.cd\Freddie Slack - Mosaic 18 Select - Freddie Slack\Freddie Slack - Mosaic 18 Select - Freddie Slack (2005) [FLAC] {Mosaic MS-018}\Disc 02\04 - Beverly Boogie.wav
     Peak level 98.0 %
     Extraction speed 2.7 X
     Track quality 100.0 %
     Test CRC 2C2E1772
     Copy CRC 2C2E1772
     Accurately ripped (confidence 3)  [0AD08A77]  (AR v1)
     Copy OK
Track  5
     Filename Z:\# What.cd\Freddie Slack - Mosaic 18 Select - Freddie Slack\Freddie Slack - Mosaic 18 Select - Freddie Slack (2005) [FLAC] {Mosaic MS-018}\Disc 02\05 - Rib Joint.wav
     Peak level 88.7 %
     Extraction speed 2.8 X
     Track quality 100.0 %
     Test CRC EC63F18E
     Copy CRC EC63F18E
     Accurately ripped (confidence 3)  [0AFE8096]  (AR v1)
     Copy OK
Track  6
     Filename Z:\# What.cd\Freddie Slack - Mosaic 18 Select - Freddie Slack\Freddie Slack - Mosaic 18 Select - Freddie Slack (2005) [FLAC] {Mosaic MS-018}\Disc 02\06 - Behind The Eight Beat.wav
     Peak level 90.8 %
     Extraction speed 3.0 X
     Track quality 100.0 %
     Test CRC 16F0E7CD
     Copy CRC 16F0E7CD
     Accurately ripped (confidence 3)  [B0000CAA]  (AR v1)
     Copy OK
Track  7
     Filename Z:\# What.cd\Freddie Slack - Mosaic 18 Select - Freddie Slack\Freddie Slack - Mosaic 18 Select - Freddie Slack (2005) [FLAC] {Mosaic MS-018}\Disc 02\07 - Southpaw Serenade.wav
     Peak level 100.0 %
     Extraction speed 3.1 X
     Track quality 100.0 %
     Test CRC E70A219C
     Copy CRC E70A219C
     Accurately ripped (confidence 3)  [D090E9EB]  (AR v1)
     Copy OK
Track  8
     Filename Z:\# What.cd\Freddie Slack - Mosaic 18 Select - Freddie Slack\Freddie Slack - Mosaic 18 Select - Freddie Slack (2005) [FLAC] {Mosaic MS-018}\Disc 02\08 - Kitten On The Keys.wav
     Peak level 100.0 %
     Extraction speed 2.7 X
     Track quality 99.9 %
     Test CRC 8953CE98
     Copy CRC 8953CE98
     Accurately ripped (confidence 3)  [6763C624]  (AR v1)
     Copy OK
Track  9
     Filename Z:\# What.cd\Freddie Slack - Mosaic 18 Select - Freddie Slack\Freddie Slack - Mosaic 18 Select - Freddie Slack (2005) [FLAC] {Mosaic MS-018}\Disc 02\09 - Strange Cargo.wav
     Peak level 100.0 %
     Extraction speed 3.4 X
     Track quality 100.0 %
     Test CRC E9D4A331
     Copy CRC E9D4A331
     Accurately ripped (confidence 3)  [7839FFE9]  (AR v1)
     Copy OK
Track 10
     Filename Z:\# What.cd\Freddie Slack - Mosaic 18 Select - Freddie Slack\Freddie Slack - Mosaic 18 Select - Freddie Slack (2005) [FLAC] {Mosaic MS-018}\Disc 02\10 - Blackout Boogie.wav
     Peak level 92.4 %
     Extraction speed 3.4 X
     Track quality 100.0 %
     Test CRC 5C9A71B7
     Copy CRC 5C9A71B7
     Accurately ripped (confidence 3)  [5D9DDA51]  (AR v1)
     Copy OK
Track 11
     Filename Z:\# What.cd\Freddie Slack - Mosaic 18 Select - Freddie Slack\Freddie Slack - Mosaic 18 Select - Freddie Slack (2005) [FLAC] {Mosaic MS-018}\Disc 02\11 - The House Of Blue Lights.wav
     Peak level 98.1 %
     Extraction speed 3.6 X
     Track quality 100.0 %
     Test CRC 9F0BA14F
     Copy CRC 9F0BA14F
     Accurately ripped (confidence 3)  [85525426]  (AR v1)
     Copy OK
Track 12
     Filename Z:\# What.cd\Freddie Slack - Mosaic 18 Select - Freddie Slack\Freddie Slack - Mosaic 18 Select - Freddie Slack (2005) [FLAC] {Mosaic MS-018}\Disc 02\12 - Hey Mr. Postman.wav
     Peak level 97.2 %
     Extraction speed 3.7 X
     Track quality 100.0 %
     Test CRC 0634E0AF
     Copy CRC 0634E0AF
     Accurately ripped (confidence 3)  [343F9E12]  (AR v1)
     Copy OK
Track 13
     Filename Z:\# What.cd\Freddie Slack - Mosaic 18 Select - Freddie Slack\Freddie Slack - Mosaic 18 Select - Freddie Slack (2005) [FLAC] {Mosaic MS-018}\Disc 02\13 - Your Conscience Tells You So.wav
     Peak level 97.5 %
     Extraction speed 3.8 X
     Track quality 100.0 %
     Test CRC 53C083F7
     Copy CRC 53C083F7
     Accurately ripped (confidence 3)  [6700FF1F]  (AR v1)
     Copy OK
Track 14
     Filename Z:\# What.cd\Freddie Slack - Mosaic 18 Select - Freddie Slack\Freddie Slack - Mosaic 18 Select - Freddie Slack (2005) [FLAC] {Mosaic MS-018}\Disc 02\14 - Pig Foot Pete.wav
     Peak level 93.3 %
     Extraction speed 3.3 X
     Track quality 99.9 %
     Test CRC 6B860701
     Copy CRC 6B860701
     Accurately ripped (confidence 3)  [8EF369B2]  (AR v1)
     Copy OK
Track 15
     Filename Z:\# What.cd\Freddie Slack - Mosaic 18 Select - Freddie Slack\Freddie Slack - Mosaic 18 Select - Freddie Slack (2005) [FLAC] {Mosaic MS-018}\Disc 02\15 - Blackout Boogie.wav
     Peak level 100.0 %
     Extraction speed 3.9 X
     Track quality 100.0 %
     Test CRC 86BF8111
     Copy CRC 86BF8111
     Accurately ripped (confidence 3)  [0E07729F]  (AR v1)
     Copy OK
Track 16
     Filename Z:\# What.cd\Freddie Slack - Mosaic 18 Select - Freddie Slack\Freddie Slack - Mosaic 18 Select - Freddie Slack (2005) [FLAC] {Mosaic MS-018}\Disc 02\16 - Is I Gotta Practice, Ma.wav
     Peak level 99.8 %
     Extraction speed 4.0 X
     Track quality 100.0 %
     Test CRC 4F08DA3A
     Copy CRC 4F08DA3A
     Accurately ripped (confidence 3)  [2A9149FE]  (AR v1)
     Copy OK
Track 17
     Filename Z:\# What.cd\Freddie Slack - Mosaic 18 Select - Freddie Slack\Freddie Slack - Mosaic 18 Select - Freddie Slack (2005) [FLAC] {Mosaic MS-018}\Disc 02\17 - On The Road To Mandalin.wav
     Peak level 96.0 %
     Extraction speed 4.1 X
     Track quality 100.0 %
     Test CRC 729C7995
     Copy CRC 729C7995
     Accurately ripped (confidence 3)  [C0AE9401]  (AR v1)
     Copy OK
Track 18
     Filename Z:\# What.cd\Freddie Slack - Mosaic 18 Select - Freddie Slack\Freddie Slack - Mosaic 18 Select - Freddie Slack (2005) [FLAC] {Mosaic MS-018}\Disc 02\18 - The H.C. Potter's Ball.wav
     Peak level 100.0 %
     Extraction speed 4.2 X
     Track quality 100.0 %
     Test CRC 363B2B7F
     Copy CRC 363B2B7F
     Accurately ripped (confidence 3)  [E29345B7]  (AR v1)
     Copy OK
Track 19
     Filename Z:\# What.cd\Freddie Slack - Mosaic 18 Select - Freddie Slack\Freddie Slack - Mosaic 18 Select - Freddie Slack (2005) [FLAC] {Mosaic MS-018}\Disc 02\19 - The Necessary Evil Blues.wav
     Peak level 100.0 %
     Extraction speed 4.3 X
     Track quality 100.0 %
     Test CRC DE84E5CB
     Copy CRC DE84E5CB
     Accurately ripped (confidence 3)  [985E864D]  (AR v1)
     Copy OK
Track 20
     Filename Z:\# What.cd\Freddie Slack - Mosaic 18 Select - Freddie Slack\Freddie Slack - Mosaic 18 Select - Freddie Slack (2005) [FLAC] {Mosaic MS-018}\Disc 02\20 - Half After.wav
     Peak level 100.0 %
     Extraction speed 3.7 X
     Track quality 99.9 %
     Test CRC C941CF90
     Copy CRC C941CF90
     Accurately ripped (confidence 3)  [3ACB12DF]  (AR v1)
     Copy OK
Track 21
     Filename Z:\# What.cd\Freddie Slack - Mosaic 18 Select - Freddie Slack\Freddie Slack - Mosaic 18 Select - Freddie Slack (2005) [FLAC] {Mosaic MS-018}\Disc 02\21 - Cocktail Repartee.wav
     Peak level 100.0 %
     Extraction speed 4.4 X
     Track quality 100.0 %
     Test CRC B9D2D795
     Copy CRC B9D2D795
     Accurately ripped (confidence 3)  [81908029]  (AR v1)
     Copy OK
Track 22
     Filename Z:\# What.cd\Freddie Slack - Mosaic 18 Select - Freddie Slack\Freddie Slack - Mosaic 18 Select - Freddie Slack (2005) [FLAC] {Mosaic MS-018}\Disc 02\22 - What Is This Thing Called Rebop.wav
     Peak level 98.6 %
     Extraction speed 4.0 X
     Track quality 99.9 %
     Test CRC B8CB8186
     Copy CRC B8CB8186
     Accurately ripped (confidence 3)  [456A89AD]  (AR v1)
     Copy OK
Track 23
     Filename Z:\# What.cd\Freddie Slack - Mosaic 18 Select - Freddie Slack\Freddie Slack - Mosaic 18 Select - Freddie Slack (2005) [FLAC] {Mosaic MS-018}\Disc 02\23 - The Brown Danube.wav
     Peak level 94.4 %
     Extraction speed 4.7 X
     Track quality 100.0 %
     Test CRC ABBB4045
     Copy CRC ABBB4045
     Accurately ripped (confidence 3)  [414CC0FF]  (AR v1)
     Copy OK
Track 24
     Filename Z:\# What.cd\Freddie Slack - Mosaic 18 Select - Freddie Slack\Freddie Slack - Mosaic 18 Select - Freddie Slack (2005) [FLAC] {Mosaic MS-018}\Disc 02\24 - Boggie In G.wav
     Peak level 88.1 %
     Extraction speed 4.7 X
     Track quality 100.0 %
     Test CRC F0A5B351
     Copy CRC F0A5B351
     Accurately ripped (confidence 3)  [4D551FAC]  (AR v1)
     Copy OK
Track 25
     Filename Z:\# What.cd\Freddie Slack - Mosaic 18 Select - Freddie Slack\Freddie Slack - Mosaic 18 Select - Freddie Slack (2005) [FLAC] {Mosaic MS-018}\Disc 02\25 - Lullaby.wav
     Peak level 91.9 %
     Extraction speed 4.7 X
     Track quality 100.0 %
     Test CRC 7BBE0B07
     Copy CRC 7BBE0B07
     Accurately ripped (confidence 3)  [5AFE4DFD]  (AR v1)
     Copy OK
All tracks accurately ripped
No errors occurred
End of status report
---- CUETools DB Plugin V2.1.4
[CTDB TOCID: hZNWi9QNcheMWrh9h8WsDZdWdIw-] disk not present in database
Submit result: hZNWi9QNcheMWrh9h8WsDZdWdIw- has been uploaded
==== Log checksum F5065CB852C549C637F73320C3ECBED2EF62FCA4F46C844014095B075FBE7E81 ====
 
 
Содержание индексной карты (.CUE)
REM GENRE Jazz
REM DATE 2005
REM DISCID 73107D19
REM COMMENT "ExactAudioCopy v1.0b3"
PERFORMER "Freddie Slack"
TITLE "Mosaic Select 18 CD2"
FILE "01 - Soft Jive.wav" WAVE
  TRACK 01 AUDIO
    TITLE "Soft Jive"
    PERFORMER "Freddie Slack"
    INDEX 01 00:00:00
FILE "02 - A Kiss Goodnight.wav" WAVE
  TRACK 02 AUDIO
    TITLE "A Kiss Goodnight"
    PERFORMER "Freddie Slack"
    INDEX 01 00:00:00
FILE "03 - A Cat's Ninth Life.wav" WAVE
  TRACK 03 AUDIO
    TITLE "A Cat's Ninth Life"
    PERFORMER "Freddie Slack"
    INDEX 01 00:00:00
FILE "04 - Beverly Boogie.wav" WAVE
  TRACK 04 AUDIO
    TITLE "Beverly Boogie"
    PERFORMER "Freddie Slack"
    INDEX 01 00:00:00
FILE "05 - Rib Joint.wav" WAVE
  TRACK 05 AUDIO
    TITLE "Rib Joint"
    PERFORMER "Freddie Slack"
    INDEX 01 00:00:00
FILE "06 - Behind the Eight Beat.wav" WAVE
  TRACK 06 AUDIO
    TITLE "Behind the Eight Beat"
    PERFORMER "Freddie Slack"
    INDEX 01 00:00:00
FILE "07 - Southpaw Serenade.wav" WAVE
  TRACK 07 AUDIO
    TITLE "Southpaw Serenade"
    PERFORMER "Freddie Slack"
    INDEX 01 00:00:00
FILE "08 - Kitten on the Keys.wav" WAVE
  TRACK 08 AUDIO
    TITLE "Kitten on the Keys"
    PERFORMER "Freddie Slack"
    INDEX 01 00:00:00
FILE "09 - Strange Cargo.wav" WAVE
  TRACK 09 AUDIO
    TITLE "Strange Cargo"
    PERFORMER "Freddie Slack"
    INDEX 01 00:00:00
FILE "10 - Blackout Boogie.wav" WAVE
  TRACK 10 AUDIO
    TITLE "Blackout Boogie"
    PERFORMER "Freddie Slack"
    INDEX 01 00:00:00
FILE "11 - The House of Blue Lights.wav" WAVE
  TRACK 11 AUDIO
    TITLE "The House of Blue Lights"
    PERFORMER "Freddie Slack"
    INDEX 01 00:00:00
FILE "12 - Hey Mr. Postman.wav" WAVE
  TRACK 12 AUDIO
    TITLE "Hey Mr. Postman"
    PERFORMER "Freddie Slack"
    INDEX 01 00:00:00
FILE "13 - Your Conscience Tells You So.wav" WAVE
  TRACK 13 AUDIO
    TITLE "Your Conscience Tells You So"
    PERFORMER "Freddie Slack"
    INDEX 01 00:00:00
FILE "14 - Pig Foot Pete.wav" WAVE
  TRACK 14 AUDIO
    TITLE "Pig Foot Pete"
    PERFORMER "Freddie Slack"
    INDEX 01 00:00:00
FILE "15 - Blackout Boogie.wav" WAVE
  TRACK 15 AUDIO
    TITLE "Blackout Boogie"
    PERFORMER "Freddie Slack"
    INDEX 01 00:00:00
FILE "16 - Is I Gotta Practice, Ma.wav" WAVE
  TRACK 16 AUDIO
    TITLE "Is I Gotta Practice, Ma?"
    PERFORMER "Freddie Slack"
    INDEX 01 00:00:00
FILE "17 - On the Road to Mandalin.wav" WAVE
  TRACK 17 AUDIO
    TITLE "On the Road to Mandalin"
    PERFORMER "Freddie Slack"
    INDEX 01 00:00:00
FILE "18 - The H.C. Potter's Ball.wav" WAVE
  TRACK 18 AUDIO
    TITLE "The H.C. Potter's Ball"
    PERFORMER "Freddie Slack"
    INDEX 01 00:00:00
FILE "19 - The Necessary Evil Blues.wav" WAVE
  TRACK 19 AUDIO
    TITLE "The Necessary Evil Blues"
    PERFORMER "Freddie Slack"
    INDEX 01 00:00:00
FILE "20 - Half After.wav" WAVE
  TRACK 20 AUDIO
    TITLE "Half After"
    PERFORMER "Freddie Slack"
    INDEX 01 00:00:00
FILE "21 - Cocktail Repartee.wav" WAVE
  TRACK 21 AUDIO
    TITLE "Cocktail Repartee"
    PERFORMER "Freddie Slack"
    INDEX 01 00:00:00
FILE "22 - What Is This Thing Called Rebop.wav" WAVE
  TRACK 22 AUDIO
    TITLE "What Is This Thing Called Rebop?"
    PERFORMER "Freddie Slack"
    INDEX 01 00:00:00
FILE "23 - The Brown Danube.wav" WAVE
  TRACK 23 AUDIO
    TITLE "The Brown Danube"
    PERFORMER "Freddie Slack"
    INDEX 01 00:00:00
FILE "24 - Boogie in G.wav" WAVE
  TRACK 24 AUDIO
    TITLE "Boogie in G"
    PERFORMER "Freddie Slack"
    INDEX 01 00:00:00
FILE "25 - Lullaby.wav" WAVE
  TRACK 25 AUDIO
    TITLE "Lullaby"
    PERFORMER "Freddie Slack"
    INDEX 01 00:00:00
 
 
Отчет CUETools
[CUETools log; Date: 23.11.2014 23:59:18; Version: 2.1.5]
[CTDB TOCID: hZNWi9QNcheMWrh9h8WsDZdWdIw-] found.
Track | CTDB Status
  1   | (1/1) Accurately ripped
  2   | (1/1) Accurately ripped
  3   | (1/1) Accurately ripped
  4   | (1/1) Accurately ripped
  5   | (1/1) Accurately ripped
  6   | (1/1) Accurately ripped
  7   | (1/1) Accurately ripped
  8   | (1/1) Accurately ripped
  9   | (1/1) Accurately ripped
 10   | (1/1) Accurately ripped
 11   | (1/1) Accurately ripped
 12   | (1/1) Accurately ripped
 13   | (1/1) Accurately ripped
 14   | (1/1) Accurately ripped
 15   | (1/1) Accurately ripped
 16   | (1/1) Accurately ripped
 17   | (1/1) Accurately ripped
 18   | (1/1) Accurately ripped
 19   | (1/1) Accurately ripped
 20   | (1/1) Accurately ripped
 21   | (1/1) Accurately ripped
 22   | (1/1) Accurately ripped
 23   | (1/1) Accurately ripped
 24   | (1/1) Accurately ripped
 25   | (1/1) Accurately ripped
[AccurateRip ID: 003eb3d7-0466f27e-73107d19] found.
Track   [  CRC   |   V2   ] Status
 01     [cfc97c81|349cd475] (3+0/3) Accurately ripped
 02     [b1c62d00|c25016a9] (3+0/3) Accurately ripped
 03     [4c952738|11da22dd] (3+0/3) Accurately ripped
 04     [0ad08a77|cadb5d07] (3+0/3) Accurately ripped
 05     [0afe8096|7444ce8a] (3+0/3) Accurately ripped
 06     [b0000caa|64670c96] (3+0/3) Accurately ripped
 07     [d090e9eb|cbdee1d8] (3+0/3) Accurately ripped
 08     [6763c624|171851ee] (3+0/3) Accurately ripped
 09     [7839ffe9|ebe36baa] (3+0/3) Accurately ripped
 10     [5d9dda51|27e38763] (3+0/3) Accurately ripped
 11     [85525426|bb239042] (3+0/3) Accurately ripped
 12     [343f9e12|71477b5b] (3+0/3) Accurately ripped
 13     [6700ff1f|785757c5] (3+0/3) Accurately ripped
 14     [8ef369b2|195c3a34] (3+0/3) Accurately ripped
 15     [0e07729f|515bb2f9] (3+0/3) Accurately ripped
 16     [2a9149fe|f2b8333c] (3+0/3) Accurately ripped
 17     [c0ae9401|7394bb70] (3+0/3) Accurately ripped
 18     [e29345b7|b45b4c7f] (3+0/3) Accurately ripped
 19     [985e864d|5da00130] (3+0/3) Accurately ripped
 20     [3acb12df|5bd6bdf8] (3+0/3) Accurately ripped
 21     [81908029|727e1171] (3+0/3) Accurately ripped
 22     [456a89ad|104882a9] (3+0/3) Accurately ripped
 23     [414cc0ff|91760c0a] (3+0/3) Accurately ripped
 24     [4d551fac|e852a6ba] (3+0/3) Accurately ripped
 25     [5afe4dfd|dc347425] (3+0/3) Accurately ripped
Track Peak [ CRC32  ] [W/O NULL] [  LOG   ]
 --  100,0 [BE500847] [894BE81D]
 01  100,0 [359FFFDE] [F40F3F87]   CRC32
 02  100,0 [4FCCAA0E] [2756CF47]   CRC32
 03   87,2 [20A3A17D] [FD6AC94E]   CRC32
 04   98,0 [2C2E1772] [44F64E79]   CRC32
 05   88,7 [EC63F18E] [57BF440D]   CRC32
 06   90,8 [16F0E7CD] [C8C868BD]   CRC32
 07  100,0 [E70A219C] [F4631C03]   CRC32
 08  100,0 [8953CE98] [2AA82510]   CRC32
 09  100,0 [E9D4A331] [64108500]   CRC32
 10   92,4 [5C9A71B7] [5CEFB548]   CRC32
 11   98,1 [9F0BA14F] [DF668AE8]   CRC32
 12   97,2 [0634E0AF] [371421AB]   CRC32
 13   97,5 [53C083F7] [145BFFD0]   CRC32
 14   93,3 [6B860701] [297C7138]   CRC32
 15  100,0 [86BF8111] [BC671FE4]   CRC32
 16   99,8 [4F08DA3A] [86CAC9AB]   CRC32
 17   96,0 [729C7995] [0ACBCBAB]   CRC32
 18  100,0 [363B2B7F] [5643EC41]   CRC32
 19  100,0 [DE84E5CB] [B79A9CD1]   CRC32
 20  100,0 [C941CF90] [EAD9A0D5]   CRC32
 21  100,0 [B9D2D795] [EC0CBFEC]   CRC32
 22   98,6 [B8CB8186] [4F211A06]   CRC32
 23   94,4 [ABBB4045] [973B5324]   CRC32
 24   88,1 [F0A5B351] [74EDC417]   CRC32
 25   91,9 [7BBE0B07] [B756DE3A]   CRC32
 
 
CD3 {65:47}
01. Humoresquire (2:58)
02. Celeste Boogie (2:55)
03. Boogie Minor (2:53)
04. St. Louis Blues (3:10)
05. Chopstick Boogie (2:54)
06. Be-Bop Boogie (3:04)
07. Two Left Hands (3:00)
08. Strollin' (3:09)
09. Ooh Ooh Baby (2:58)
10. Steal Away Easy Baby (3:01)
11. Mister Freddie's Boogie (2:20)
12. Whatever Happened to Ol' Jack? (2:58)
13. Untitled Tune (2:39)
14. Ukulele Swing (2:13)
15. Choppin' the Boogie (2:18)
16. Untitled Original (2:18)
17. Big Boy (3:12)
18. Hard Hearted Hannah (3:19)
19. Cheatin' on Me (3:19)
20. Manhattan Serenade (2:44)
21. Rock A Bye Bay (3:02)
22. That Russian Winter (2:52)
23. Without a Song (2:31)
 
 
Лог создания рипа
Exact Audio Copy V1.0 beta 3 from 29. August 2011
EAC extraction logfile from 23. November 2014, 0:08
Freddie Slack / Freddie Slack - Mosaic 18 Select - Freddie Slack - CD3
Used drive  : Optiarc DVD RW AD-5240S   Adapter: 0  ID: 2
Read mode               : Secure
Utilize accurate stream : Yes
Defeat audio cache      : Yes
Make use of C2 pointers : No
Read offset correction                      : 48
Overread into Lead-In and Lead-Out          : No
Fill up missing offset samples with silence : Yes
Delete leading and trailing silent blocks   : No
Null samples used in CRC calculations       : Yes
Used interface                              : Native Win32 interface for Win NT & 2000
Gap handling                                : Appended to previous track
Used output format              : User Defined Encoder
Selected bitrate                : 1024 kBit/s
Quality                         : High
Add ID3 tag                     : No
Command line compressor         : C:\Program Files\Exact Audio Copy\FLAC\FLAC.EXE
Additional command line options : -8 -V -T "ARTIST=%artist%" -T "TITLE=%title%" -T "ALBUM=%albumtitle%" -T "DATE=%year%" -T "TRACKNUMBER=%tracknr%" -T "GENRE=%genre%" -T "PERFORMER=%albuminterpret%" -T "COMPOSER=%composer%" %haslyrics%--tag-from-file=LYRICS="%lyricsfile%"%haslyrics% -T "ALBUMARTIST=%albumartist%" -T "DISCNUMBER=%cdnumber%" -T "TOTALDISCS=%totalcds%" -T "TOTALTRACKS=%numtracks%" -T "COMMENT=%comment%" %source% -o %dest%
TOC of the extracted CD
     Track |   Start  |  Length  | Start sector | End sector
    ---------------------------------------------------------
        1  |  0:00.00 |  2:57.42 |         0    |    13316
        2  |  2:57.42 |  2:55.26 |     13317    |    26467
        3  |  5:52.68 |  2:52.64 |     26468    |    39431
        4  |  8:45.57 |  3:09.53 |     39432    |    53659
        5  | 11:55.35 |  2:54.25 |     53660    |    66734
        6  | 14:49.60 |  3:03.45 |     66735    |    80504
        7  | 17:53.30 |  3:00.25 |     80505    |    94029
        8  | 20:53.55 |  3:09.01 |     94030    |   108205
        9  | 24:02.56 |  2:57.43 |    108206    |   121523
       10  | 27:00.24 |  3:01.37 |    121524    |   135135
       11  | 30:01.61 |  2:19.57 |    135136    |   145617
       12  | 32:21.43 |  2:58.28 |    145618    |   158995
       13  | 35:19.71 |  2:39.33 |    158996    |   170953
       14  | 37:59.29 |  2:12.63 |    170954    |   180916
       15  | 40:12.17 |  2:18.07 |    180917    |   191273
       16  | 42:30.24 |  2:17.41 |    191274    |   201589
       17  | 44:47.65 |  3:11.52 |    201590    |   215966
       18  | 47:59.42 |  3:18.60 |    215967    |   230876
       19  | 51:18.27 |  3:19.06 |    230877    |   245807
       20  | 54:37.33 |  2:43.68 |    245808    |   258100
       21  | 57:21.26 |  3:02.35 |    258101    |   271785
       22  | 60:23.61 |  2:52.18 |    271786    |   284703
       23  | 63:16.04 |  2:30.41 |    284704    |   295994
Track  1
     Filename Z:\# What.cd\Freddie Slack - Mosaic 18 Select - Freddie Slack\Freddie Slack - Mosaic 18 Select - Freddie Slack (2005) [FLAC] {Mosaic MS-018}\Disc 03\01 - Humoresquire.wav
     Pre-gap length  0:00:02.00
     Peak level 97.8 %
     Extraction speed 2.2 X
     Track quality 100.0 %
     Test CRC 36CB69BB
     Copy CRC 36CB69BB
     Accurately ripped (confidence 3)  [96B87F89]  (AR v1)
     Copy OK
Track  2
     Filename Z:\# What.cd\Freddie Slack - Mosaic 18 Select - Freddie Slack\Freddie Slack - Mosaic 18 Select - Freddie Slack (2005) [FLAC] {Mosaic MS-018}\Disc 03\02 - Celeste Boogie.wav
     Peak level 94.2 %
     Extraction speed 2.4 X
     Track quality 100.0 %
     Test CRC 24DEA1C4
     Copy CRC 24DEA1C4
     Accurately ripped (confidence 3)  [C8D35BBD]  (AR v1)
     Copy OK
Track  3
     Filename Z:\# What.cd\Freddie Slack - Mosaic 18 Select - Freddie Slack\Freddie Slack - Mosaic 18 Select - Freddie Slack (2005) [FLAC] {Mosaic MS-018}\Disc 03\03 - Boogie Minor.wav
     Peak level 97.7 %
     Extraction speed 2.5 X
     Track quality 100.0 %
     Test CRC 211D93BA
     Copy CRC 211D93BA
     Accurately ripped (confidence 3)  [C64398CF]  (AR v1)
     Copy OK
Track  4
     Filename Z:\# What.cd\Freddie Slack - Mosaic 18 Select - Freddie Slack\Freddie Slack - Mosaic 18 Select - Freddie Slack (2005) [FLAC] {Mosaic MS-018}\Disc 03\04 - St. Louis Blues.wav
     Peak level 96.9 %
     Extraction speed 2.8 X
     Track quality 100.0 %
     Test CRC CC1648F2
     Copy CRC CC1648F2
     Accurately ripped (confidence 3)  [739312DF]  (AR v1)
     Copy OK
Track  5
     Filename Z:\# What.cd\Freddie Slack - Mosaic 18 Select - Freddie Slack\Freddie Slack - Mosaic 18 Select - Freddie Slack (2005) [FLAC] {Mosaic MS-018}\Disc 03\05 - Chopstick Boogie.wav
     Peak level 98.4 %
     Extraction speed 2.9 X
     Track quality 100.0 %
     Test CRC 1B6A8AC2
     Copy CRC 1B6A8AC2
     Accurately ripped (confidence 3)  [1221502D]  (AR v1)
     Copy OK
Track  6
     Filename Z:\# What.cd\Freddie Slack - Mosaic 18 Select - Freddie Slack\Freddie Slack - Mosaic 18 Select - Freddie Slack (2005) [FLAC] {Mosaic MS-018}\Disc 03\06 - Be-Bop Boogie.wav
     Peak level 92.7 %
     Extraction speed 2.6 X
     Track quality 99.9 %
     Test CRC 057F39F6
     Copy CRC 057F39F6
     Accurately ripped (confidence 3)  [E9DEE556]  (AR v1)
     Copy OK
Track  7
     Filename Z:\# What.cd\Freddie Slack - Mosaic 18 Select - Freddie Slack\Freddie Slack - Mosaic 18 Select - Freddie Slack (2005) [FLAC] {Mosaic MS-018}\Disc 03\07 - Two Left Hands.wav
     Peak level 100.0 %
     Extraction speed 3.2 X
     Track quality 100.0 %
     Test CRC A5994320
     Copy CRC A5994320
     Accurately ripped (confidence 3)  [B95F3B42]  (AR v1)
     Copy OK
Track  8
     Filename Z:\# What.cd\Freddie Slack - Mosaic 18 Select - Freddie Slack\Freddie Slack - Mosaic 18 Select - Freddie Slack (2005) [FLAC] {Mosaic MS-018}\Disc 03\08 - Strollin'.wav
     Peak level 97.4 %
     Extraction speed 3.4 X
     Track quality 100.0 %
     Test CRC 8AAC0711
     Copy CRC 8AAC0711
     Accurately ripped (confidence 3)  [2735B1DB]  (AR v1)
     Copy OK
Track  9
     Filename Z:\# What.cd\Freddie Slack - Mosaic 18 Select - Freddie Slack\Freddie Slack - Mosaic 18 Select - Freddie Slack (2005) [FLAC] {Mosaic MS-018}\Disc 03\09 - Ooh Ooh Baby.wav
     Peak level 89.5 %
     Extraction speed 3.4 X
     Track quality 100.0 %
     Test CRC 58680EC9
     Copy CRC 58680EC9
     Accurately ripped (confidence 3)  [949C0A3F]  (AR v1)
     Copy OK
Track 10
     Filename Z:\# What.cd\Freddie Slack - Mosaic 18 Select - Freddie Slack\Freddie Slack - Mosaic 18 Select - Freddie Slack (2005) [FLAC] {Mosaic MS-018}\Disc 03\10 - Steal Away Easy Baby.wav
     Peak level 92.7 %
     Extraction speed 3.5 X
     Track quality 100.0 %
     Test CRC 80814A56
     Copy CRC 80814A56
     Accurately ripped (confidence 3)  [8A0C2A12]  (AR v1)
     Copy OK
Track 11
     Filename Z:\# What.cd\Freddie Slack - Mosaic 18 Select - Freddie Slack\Freddie Slack - Mosaic 18 Select - Freddie Slack (2005) [FLAC] {Mosaic MS-018}\Disc 03\11 - Mister Freddie's Boogie.wav
     Peak level 100.0 %
     Extraction speed 2.9 X
     Track quality 99.9 %
     Test CRC 3E36646D
     Copy CRC 3E36646D
     Accurately ripped (confidence 3)  [7E8BA3C7]  (AR v1)
     Copy OK
Track 12
     Filename Z:\# What.cd\Freddie Slack - Mosaic 18 Select - Freddie Slack\Freddie Slack - Mosaic 18 Select - Freddie Slack (2005) [FLAC] {Mosaic MS-018}\Disc 03\12 - Whatever Happened To Ol' Jack.wav
     Peak level 99.4 %
     Extraction speed 3.8 X
     Track quality 100.0 %
     Test CRC B4D7EF83
     Copy CRC B4D7EF83
     Accurately ripped (confidence 3)  [DC5BBAFB]  (AR v1)
     Copy OK
Track 13
     Filename Z:\# What.cd\Freddie Slack - Mosaic 18 Select - Freddie Slack\Freddie Slack - Mosaic 18 Select - Freddie Slack (2005) [FLAC] {Mosaic MS-018}\Disc 03\13 - Untitled Tune.wav
     Peak level 100.0 %
     Extraction speed 3.8 X
     Track quality 100.0 %
     Test CRC 6A225948
     Copy CRC 6A225948
     Accurately ripped (confidence 3)  [F4916E6A]  (AR v1)
     Copy OK
Track 14
     Filename Z:\# What.cd\Freddie Slack - Mosaic 18 Select - Freddie Slack\Freddie Slack - Mosaic 18 Select - Freddie Slack (2005) [FLAC] {Mosaic MS-018}\Disc 03\14 - Ukulele Swing.wav
     Peak level 99.9 %
     Extraction speed 3.8 X
     Track quality 100.0 %
     Test CRC 7C70D224
     Copy CRC 7C70D224
     Accurately ripped (confidence 3)  [9C467C28]  (AR v1)
     Copy OK
Track 15
     Filename Z:\# What.cd\Freddie Slack - Mosaic 18 Select - Freddie Slack\Freddie Slack - Mosaic 18 Select - Freddie Slack (2005) [FLAC] {Mosaic MS-018}\Disc 03\15 - Choppin' The Boogie.wav
     Peak level 98.0 %
     Extraction speed 3.2 X
     Track quality 99.9 %
     Test CRC EAE05F9F
     Copy CRC EAE05F9F
     Accurately ripped (confidence 3)  [ED2B08D6]  (AR v1)
     Copy OK
Track 16
     Filename Z:\# What.cd\Freddie Slack - Mosaic 18 Select - Freddie Slack\Freddie Slack - Mosaic 18 Select - Freddie Slack (2005) [FLAC] {Mosaic MS-018}\Disc 03\16 - Untitled Original.wav
     Peak level 97.7 %
     Extraction speed 3.9 X
     Track quality 100.0 %
     Test CRC 47B02702
     Copy CRC 47B02702
     Accurately ripped (confidence 3)  [43705992]  (AR v1)
     Copy OK
Track 17
     Filename Z:\# What.cd\Freddie Slack - Mosaic 18 Select - Freddie Slack\Freddie Slack - Mosaic 18 Select - Freddie Slack (2005) [FLAC] {Mosaic MS-018}\Disc 03\17 - Big Boy.wav
     Peak level 92.9 %
     Extraction speed 4.3 X
     Track quality 100.0 %
     Test CRC 9F31AF08
     Copy CRC 9F31AF08
     Accurately ripped (confidence 3)  [56833431]  (AR v1)
     Copy OK
Track 18
     Filename Z:\# What.cd\Freddie Slack - Mosaic 18 Select - Freddie Slack\Freddie Slack - Mosaic 18 Select - Freddie Slack (2005) [FLAC] {Mosaic MS-018}\Disc 03\18 - Hard Hearted Hannah.wav
     Peak level 100.0 %
     Extraction speed 4.3 X
     Track quality 100.0 %
     Test CRC 3BD6941A
     Copy CRC 3BD6941A
     Accurately ripped (confidence 3)  [86E74CA2]  (AR v1)
     Copy OK
Track 19
     Filename Z:\# What.cd\Freddie Slack - Mosaic 18 Select - Freddie Slack\Freddie Slack - Mosaic 18 Select - Freddie Slack (2005) [FLAC] {Mosaic MS-018}\Disc 03\19 - Cheatin' On Me.wav
     Peak level 96.9 %
     Extraction speed 4.5 X
     Track quality 100.0 %
     Test CRC 96DE3B05
     Copy CRC 96DE3B05
     Accurately ripped (confidence 3)  [DD8D2B29]  (AR v1)
     Copy OK
Track 20
     Filename Z:\# What.cd\Freddie Slack - Mosaic 18 Select - Freddie Slack\Freddie Slack - Mosaic 18 Select - Freddie Slack (2005) [FLAC] {Mosaic MS-018}\Disc 03\20 - ManHattan Serenade.wav
     Peak level 98.4 %
     Extraction speed 4.4 X
     Track quality 100.0 %
     Test CRC 80E2A7A2
     Copy CRC 80E2A7A2
     Accurately ripped (confidence 3)  [76AA6F68]  (AR v1)
     Copy OK
Track 21
     Filename Z:\# What.cd\Freddie Slack - Mosaic 18 Select - Freddie Slack\Freddie Slack - Mosaic 18 Select - Freddie Slack (2005) [FLAC] {Mosaic MS-018}\Disc 03\21 - Rock A Bye Bay.wav
     Peak level 94.6 %
     Extraction speed 4.5 X
     Track quality 100.0 %
     Test CRC BAED61E4
     Copy CRC BAED61E4
     Accurately ripped (confidence 3)  [23BA4D1D]  (AR v1)
     Copy OK
Track 22
     Filename Z:\# What.cd\Freddie Slack - Mosaic 18 Select - Freddie Slack\Freddie Slack - Mosaic 18 Select - Freddie Slack (2005) [FLAC] {Mosaic MS-018}\Disc 03\22 - That Russian Winter.wav
     Peak level 96.1 %
     Extraction speed 4.6 X
     Track quality 100.0 %
     Test CRC CC74920E
     Copy CRC CC74920E
     Accurately ripped (confidence 3)  [F81658E4]  (AR v1)
     Copy OK
Track 23
     Filename Z:\# What.cd\Freddie Slack - Mosaic 18 Select - Freddie Slack\Freddie Slack - Mosaic 18 Select - Freddie Slack (2005) [FLAC] {Mosaic MS-018}\Disc 03\23 - Without A Song.wav
     Peak level 100.0 %
     Extraction speed 4.6 X
     Track quality 100.0 %
     Test CRC D68A7C4A
     Copy CRC D68A7C4A
     Accurately ripped (confidence 3)  [BCAEEE23]  (AR v1)
     Copy OK
All tracks accurately ripped
No errors occurred
End of status report
---- CUETools DB Plugin V2.1.4
[CTDB TOCID: 5jUh_Yu29r4xVJ9nWzMQaKtUzdQ-] disk not present in database
Submit result: 5jUh_Yu29r4xVJ9nWzMQaKtUzdQ- has been uploaded
==== Log checksum 57DD5877EE8B13E237A424833025C79F9231215F293EE13281D80FCD93774D2C ====
 
 
Содержание индексной карты (.CUE)
REM GENRE Jazz
REM DATE 2005
REM DISCID 4F0F6A17
REM COMMENT "ExactAudioCopy v1.0b3"
PERFORMER "Freddie Slack"
TITLE "Mosaic Select 18 CD3"
FILE "01 - Humoresquire.wav" WAVE
  TRACK 01 AUDIO
    TITLE "Humoresquire"
    PERFORMER "Freddie Slack"
    INDEX 01 00:00:00
FILE "02 - Celeste Boogie.wav" WAVE
  TRACK 02 AUDIO
    TITLE "Celeste Boogie"
    PERFORMER "Freddie Slack"
    INDEX 01 00:00:00
FILE "03 - Boogie Minor.wav" WAVE
  TRACK 03 AUDIO
    TITLE "Boogie Minor"
    PERFORMER "Freddie Slack"
    INDEX 01 00:00:00
FILE "04 - St. Louis Blues.wav" WAVE
  TRACK 04 AUDIO
    TITLE "St. Louis Blues"
    PERFORMER "Freddie Slack"
    INDEX 01 00:00:00
FILE "05 - Chopstick Boogie.wav" WAVE
  TRACK 05 AUDIO
    TITLE "Chopstick Boogie"
    PERFORMER "Freddie Slack"
    INDEX 01 00:00:00
FILE "06 - Be-Bop Boogie.wav" WAVE
  TRACK 06 AUDIO
    TITLE "Be-Bop Boogie"
    PERFORMER "Freddie Slack"
    INDEX 01 00:00:00
FILE "07 - Two Left Hands.wav" WAVE
  TRACK 07 AUDIO
    TITLE "Two Left Hands"
    PERFORMER "Freddie Slack"
    INDEX 01 00:00:00
FILE "08 - Strollin'.wav" WAVE
  TRACK 08 AUDIO
    TITLE "Strollin'"
    PERFORMER "Freddie Slack"
    INDEX 01 00:00:00
FILE "09 - Ooh Ooh Baby.wav" WAVE
  TRACK 09 AUDIO
    TITLE "Ooh Ooh Baby"
    PERFORMER "Freddie Slack"
    INDEX 01 00:00:00
FILE "10 - Steal Away Easy Baby.wav" WAVE
  TRACK 10 AUDIO
    TITLE "Steal Away Easy Baby"
    PERFORMER "Freddie Slack"
    INDEX 01 00:00:00
FILE "11 - Mister Freddie's Boogie.wav" WAVE
  TRACK 11 AUDIO
    TITLE "Mister Freddie's Boogie"
    PERFORMER "Freddie Slack"
    INDEX 01 00:00:00
FILE "12 - Whatever Happened to Ol' Jack.wav" WAVE
  TRACK 12 AUDIO
    TITLE "Whatever Happened to Ol' Jack?"
    PERFORMER "Freddie Slack"
    INDEX 01 00:00:00
FILE "13 - Untitled Tune.wav" WAVE
  TRACK 13 AUDIO
    TITLE "Untitled Tune"
    PERFORMER "Freddie Slack"
    INDEX 01 00:00:00
FILE "14 - Ukulele Swing.wav" WAVE
  TRACK 14 AUDIO
    TITLE "Ukulele Swing"
    PERFORMER "Freddie Slack"
    INDEX 01 00:00:00
FILE "15 - Choppin' the Boogie.wav" WAVE
  TRACK 15 AUDIO
    TITLE "Choppin' the Boogie"
    PERFORMER "Freddie Slack"
    INDEX 01 00:00:00
FILE "16 - Untitled Original.wav" WAVE
  TRACK 16 AUDIO
    TITLE "Untitled Original"
    PERFORMER "Freddie Slack"
    INDEX 01 00:00:00
FILE "
Any questions - support@pro-jazz.com
To become a power user - read FAQ.
16:21
525
Нет комментариев. Ваш будет первым!