Поиск

2004 Vincent Herring - Mr. Wizard {HighNote HCD 7121}

2004 Vincent Herring - Mr. Wizard {HighNote HCD 7121}
Издатель (лейбл):
Треклист:
Дата записи: 10 декабря 2003
Место записи: Eastside Sound, New York, NY
Дата издания: 27 апреля 2004
Номер по каталогу: HCD 7121
Аудиокодек: FLAC (*.flac)
Тип рипа: tracks+.cue
Битрейт аудио: lossless
Продолжительность: 49:31
Rip by mishka1981
Наличие сканов в содержимом раздачи: да
Треклист:
01. All God's Children Got Rhythm (4:29)
02. Citizen Of Zamunda (4:44)
03. Hopscotch (4:05)
04. You Leave Me Breathless (5:04)
05. Four By Five (5:04)
06. Encounters (7:43)
07. Cassius (5:21)
08. The Walk Home (7:20)
09. Mr. Wizard (5:41)
 
Лог создания рипа
Exact Audio Copy V1.0 beta 1 from 15. November 2010
EAC extraction logfile from 11. May 2012, 19:34
Vincent Herring / Mr. Wizard
Used drive  : Optiarc DVD RW AD-7710H   Adapter: 1  ID: 0
Read mode               : Secure
Utilize accurate stream : Yes
Defeat audio cache      : Yes
Make use of C2 pointers : No
Read offset correction                      : 48
Overread into Lead-In and Lead-Out          : No
Fill up missing offset samples with silence : Yes
Delete leading and trailing silent blocks   : No
Null samples used in CRC calculations       : Yes
Used interface                              : Native Win32 interface for Win NT & 2000
Gap handling                                : Appended to previous track
Used output format              : User Defined Encoder
Selected bitrate                : 896 kBit/s
Quality                         : High
Add ID3 tag                     : No
Command line compressor         : C:\Program Files\Exact Audio Copy\FLAC\FLAC.EXE
Additional command line options : -8 -V -T "ARTIST=%a" -T "TITLE=%t" -T "ALBUM=%g" -T "DATE=%y" -T "TRACKNUMBER=%n" -T "GENRE=%m" -T "COMMENT=%e" %j--picture="%i"%j %s -o %d
TOC of the extracted CD
     Track |   Start  |  Length  | Start sector | End sector
    ---------------------------------------------------------
        1  |  0:00.00 |  4:28.38 |         0    |    20137
        2  |  4:28.38 |  4:43.47 |     20138    |    41409
        3  |  9:12.10 |  4:05.18 |     41410    |    59802
        4  | 13:17.28 |  5:04.16 |     59803    |    82618
        5  | 18:21.44 |  5:04.34 |     82619    |   105452
        6  | 23:26.03 |  7:43.17 |    105453    |   140194
        7  | 31:09.20 |  5:21.02 |    140195    |   164271
        8  | 36:30.22 |  7:19.60 |    164272    |   197256
        9  | 43:50.07 |  5:40.61 |    197257    |   222817
Track  1
     Filename C:\MY RIPS\01 - All God's Children Got Rhythm.wav
     Pre-gap length  0:00:02.00
     Peak level 99.8 %
     Extraction speed 2.7 X
     Track quality 100.0 %
     Test CRC 6EEBB9E2
     Copy CRC 6EEBB9E2
     Accurately ripped (confidence 1)  [58CCC174]
     Copy OK
Track  2
     Filename C:\MY RIPS\02 - Citizen Of Zamunda.wav
     Peak level 99.8 %
     Extraction speed 3.1 X
     Track quality 100.0 %
     Test CRC 264305A1
     Copy CRC 264305A1
     Accurately ripped (confidence 1)  [1A1F208B]
     Copy OK
Track  3
     Filename C:\MY RIPS\03 - Hopscotch.wav
     Peak level 99.9 %
     Extraction speed 3.3 X
     Track quality 100.0 %
     Test CRC 84DDF471
     Copy CRC 84DDF471
     Accurately ripped (confidence 1)  [4BAAB73A]
     Copy OK
Track  4
     Filename C:\MY RIPS\04 - You Leave Me Breathless.wav
     Peak level 99.8 %
     Extraction speed 3.8 X
     Track quality 100.0 %
     Test CRC DA41C8FA
     Copy CRC DA41C8FA
     Accurately ripped (confidence 1)  [3CE97773]
     Copy OK
Track  5
     Filename C:\MY RIPS\05 - Four By Five.wav
     Peak level 99.8 %
     Extraction speed 4.0 X
     Track quality 100.0 %
     Test CRC FCBEE9D2
     Copy CRC FCBEE9D2
     Accurately ripped (confidence 1)  [A4DE3FF0]
     Copy OK
Track  6
     Filename C:\MY RIPS\06 - Encounters.wav
     Peak level 99.8 %
     Extraction speed 4.1 X
     Track quality 99.9 %
     Test CRC C98B0F40
     Copy CRC C98B0F40
     Accurately ripped (confidence 1)  [A706FEDB]
     Copy OK
Track  7
     Filename C:\MY RIPS\07 - Cassius.wav
     Peak level 99.8 %
     Extraction speed 4.7 X
     Track quality 100.0 %
     Test CRC D63AE71B
     Copy CRC D63AE71B
     Accurately ripped (confidence 1)  [631A49E4]
     Copy OK
Track  8
     Filename C:\MY RIPS\08 - The Walk Home.wav
     Peak level 99.9 %
     Extraction speed 5.1 X
     Track quality 100.0 %
     Test CRC 9AE79BBE
     Copy CRC 9AE79BBE
     Accurately ripped (confidence 1)  [E93DEA90]
     Copy OK
Track  9
     Filename C:\MY RIPS\09 - Mr. Wizard.wav
     Peak level 97.7 %
     Extraction speed 5.3 X
     Track quality 100.0 %
     Test CRC E29D6A75
     Copy CRC E29D6A75
     Accurately ripped (confidence 1)  [8DA4A96C]
     Copy OK
All tracks accurately ripped
No errors occurred
End of status report
==== Log checksum 6B969EDF234DF8CEF485B58B14BFC93E815457CB0C17A7AA0879C9892E2DCE8F ====
 
 
Содержание индексной карты (.CUE)
REM GENRE Jazz
REM DATE 2004
REM DISCID 700B9A09
REM COMMENT "ExactAudioCopy v1.0b1"
PERFORMER "Vincent Herring"
TITLE "Mr. Wizard"
FILE "01 - All God's Children Got Rhythm.wav" WAVE
  TRACK 01 AUDIO
    TITLE "All God's Children Got Rhythm"
    PERFORMER "Vincent Herring"
    INDEX 01 00:00:00
FILE "02 - Citizen Of Zamunda.wav" WAVE
  TRACK 02 AUDIO
    TITLE "Citizen Of Zamunda"
    PERFORMER "Vincent Herring"
    INDEX 01 00:00:00
FILE "03 - Hopscotch.wav" WAVE
  TRACK 03 AUDIO
    TITLE "Hopscotch"
    PERFORMER "Vincent Herring"
    INDEX 01 00:00:00
FILE "04 - You Leave Me Breathless.wav" WAVE
  TRACK 04 AUDIO
    TITLE "You Leave Me Breathless"
    PERFORMER "Vincent Herring"
    INDEX 01 00:00:00
FILE "05 - Four By Five.wav" WAVE
  TRACK 05 AUDIO
    TITLE "Four By Five"
    PERFORMER "Vincent Herring"
    INDEX 01 00:00:00
FILE "06 - Encounters.wav" WAVE
  TRACK 06 AUDIO
    TITLE "Encounters"
    PERFORMER "Vincent Herring"
    INDEX 01 00:00:00
FILE "07 - Cassius.wav" WAVE
  TRACK 07 AUDIO
    TITLE "Cassius"
    PERFORMER "Vincent Herring"
    INDEX 01 00:00:00
FILE "08 - The Walk Home.wav" WAVE
  TRACK 08 AUDIO
    TITLE "The Walk Home"
    PERFORMER "Vincent Herring"
    INDEX 01 00:00:00
FILE "09 - Mr. Wizard.wav" WAVE
  TRACK 09 AUDIO
    TITLE "Mr. Wizard"
    PERFORMER "Vincent Herring"
    INDEX 01 00:00:00
Приватный:
Нет (DHT включён)
Размер:
309.75 Мб (324,798,739 байт) » файлов: 16
Участники:
0 раздают, 0 качают (0 участников всего)
Внешние участники:
1 раздают, 0 качают (1 участников всего) [ Обновить ]
Есть вопросы - пишите личное сообщение пользователю M0p94ok.
02:17
55
Нет комментариев. Ваш будет первым!