Вы используете незарегистрированную версию компонента "Вкладки"!

Поиск

2004 VA - La Scena Olandese {Musica Jazz MJCD 1157} [CD]

2004 VA - La Scena Olandese {Musica Jazz MJCD 1157} [CD]
Лог создания рипа
Exact Audio Copy V1.3 from 2. September 2016

Отчёт EAC об извлечении, выполненном 20. марта 2018, 0:39

Various Artists / La Scena Olandese

Дисковод: PLEXTOR DVDR   PX-L890SA   Adapter: 1  ID: 0

Режим чтения                 : Достоверность
Использование точного потока : Да
Отключение кэша аудио        : Да
Использование указателей C2  : Нет

Коррекция смещения при чтении                     : 6
Способность читать области Lead-in и Lead-out     : Нет
Заполнение пропущенных сэмплов тишиной            : Да
Удаление блоков с тишиной в начале и конце        : Нет
При вычислениях CRC использовались нулевые сэмплы : Да
Интерфейс                                         : Встроенный Win32-интерфейс для Win NT/2000
Обработка зазоров                                 : Добавлено к предыдущему треку

Выходной формат          : Пользовательский кодировщик
Выбранный битрейт        : 896 kBit/s
Качество                 : Высокий
Добавление ID3-тега      : Нет
Утилита сжатия           : C:\Program Files\Exact Audio Copy\Flac\flac.exe
Дополнительные параметры : -V -8 -T "Genre=%genre%" -T "Artist=%artist%" -T "Title=%title%" -T "Album=%albumtitle%" -T "Date=%year%" -T "Tracknumber=%tracknr%" -T "Comment=%comment%" %source%

TOC извлечённого CD

     Трек |   Старт  | Длительность | Начальный сектор | Конечный сектор
    ---------------------------------------------------------------------
       1  |  0:00.00 |    4:12.12   |           0      |      18911
       2  |  4:12.12 |    4:50.10   |       18912      |      40671
       3  |  9:02.22 |    8:19.05   |       40672      |      78101
       4  | 17:21.27 |    4:07.20   |       78102      |      96646
       5  | 21:28.47 |    5:57.73   |       96647      |     123494
       6  | 27:26.45 |    4:29.40   |      123495      |     143709
       7  | 31:56.10 |    5:14.37   |      143710      |     167296
       8  | 37:10.47 |    2:50.58   |      167297      |     180104
       9  | 40:01.30 |    7:20.60   |      180105      |     213164
      10  | 47:22.15 |    1:49.32   |      213165      |     221371
      11  | 49:11.47 |    9:58.18   |      221372      |     266239
      12  | 59:09.65 |    2:32.20   |      266240      |     277659
      13  | 61:42.10 |    5:09.02   |      277660      |     300836
      14  | 66:51.12 |    2:47.18   |      300837      |     313379
      15  | 69:38.30 |    4:10.25   |      313380      |     332154

Трек  1

     Имя файла H:\Зарубежный джаз\VA - La Scena Olandese 2004\01 Leo Cuypers - Memories.wav

     Длина предзазора  0:00:02.00

     Пиковый уровень 99.9 %
     Скорость извлечения 5.1 X
     Качество трека 100.0 %
     CRC теста 80CEA152
     CRC копии 80CEA152
     Точное извлечение (достоверность 1)  [8CCAC0ED]  (AR v2)
     Копирование... OK

Трек  2

     Имя файла H:\Зарубежный джаз\VA - La Scena Olandese 2004\02 Trio Braamdejoodevatcher - Orange.wav

     Пиковый уровень 99.9 %
     Скорость извлечения 4.6 X
     Качество трека 99.9 %
     CRC теста 83939289
     CRC копии 83939289
     Точное извлечение (достоверность 1)  [D058ACA5]  (AR v2)
     Копирование... OK

Трек  3

     Имя файла H:\Зарубежный джаз\VA - La Scena Olandese 2004\03 John Zorn Quartett - Brozziman.wav

     Пиковый уровень 99.9 %
     Скорость извлечения 5.5 X
     Качество трека 100.0 %
     CRC теста F66BE22F
     CRC копии F66BE22F
     Точное извлечение (достоверность 1)  [6BB12477]  (AR v2)
     Копирование... OK

Трек  4

     Имя файла H:\Зарубежный джаз\VA - La Scena Olandese 2004\04 Available Jelly - Uninhibited Island.wav

     Пиковый уровень 99.9 %
     Скорость извлечения 5.1 X
     Качество трека 100.0 %
     CRC теста AB88AAB4
     CRC копии AB88AAB4
     Точное извлечение (достоверность 1)  [3913C72C]  (AR v2)
     Копирование... OK

Трек  5

     Имя файла H:\Зарубежный джаз\VA - La Scena Olandese 2004\05 Willem Breuker Kollektief - Hap Sap (But Not From Jaffa).wav

     Пиковый уровень 99.9 %
     Скорость извлечения 5.4 X
     Качество трека 100.0 %
     CRC теста 883AD84F
     CRC копии 883AD84F
     Точное извлечение (достоверность 1)  [B6828235]  (AR v2)
     Копирование... OK

Трек  6

     Имя файла H:\Зарубежный джаз\VA - La Scena Olandese 2004\06 Eric Vloeimans - Boom-Petit.wav

     Пиковый уровень 99.9 %
     Скорость извлечения 5.2 X
     Качество трека 100.0 %
     CRC теста 0D194728
     CRC копии 0D194728
     Точное извлечение (достоверность 1)  [8F29ED2B]  (AR v2)
     Копирование... OK

Трек  7

     Имя файла H:\Зарубежный джаз\VA - La Scena Olandese 2004\07 Theo Loevendie Quartett - Bayram.wav

     Пиковый уровень 99.9 %
     Скорость извлечения 5.3 X
     Качество трека 100.0 %
     CRC теста CFB15B85
     CRC копии CFB15B85
     Точное извлечение (достоверность 1)  [78B5DF23]  (AR v2)
     Копирование... OK

Трек  8

     Имя файла H:\Зарубежный джаз\VA - La Scena Olandese 2004\08 Amsterdam String Trio - Trench Muzak.wav

     Пиковый уровень 99.9 %
     Скорость извлечения 4.9 X
     Качество трека 100.0 %
     CRC теста B11E1FCF
     CRC копии B11E1FCF
     Точное извлечение (достоверность 1)  [0673D838]  (AR v2)
     Копирование... OK

Трек  9

     Имя файла H:\Зарубежный джаз\VA - La Scena Olandese 2004\09 Sean Bergin's Mob - Monkey Woman.wav

     Пиковый уровень 100.0 %
     Скорость извлечения 5.5 X
     Качество трека 100.0 %
     CRC теста 7A4285D7
     CRC копии 7A4285D7
     Точное извлечение (достоверность 1)  [B9199FAB]  (AR v2)
     Копирование... OK

Трек 10

     Имя файла H:\Зарубежный джаз\VA - La Scena Olandese 2004\10 Ab Baars Trio - Igor's Bransle.wav

     Пиковый уровень 99.9 %
     Скорость извлечения 4.4 X
     Качество трека 100.0 %
     CRC теста F6508025
     CRC копии F6508025
     Точное извлечение (достоверность 1)  [6550017D]  (AR v2)
     Копирование... OK

Трек 11

     Имя файла H:\Зарубежный джаз\VA - La Scena Olandese 2004\11 Misha Mengelberg Quartett - Total Loss.wav

     Пиковый уровень 99.9 %
     Скорость извлечения 5.3 X
     Качество трека 99.9 %
     CRC теста FFF2CCE3
     CRC копии FFF2CCE3
     Точное извлечение (достоверность 1)  [63C08129]  (AR v2)
     Копирование... OK

Трек 12

     Имя файла H:\Зарубежный джаз\VA - La Scena Olandese 2004\12 Corrie Van Bingsbergen - Dat Had Je Gedacht.wav

     Пиковый уровень 99.9 %
     Скорость извлечения 4.8 X
     Качество трека 100.0 %
     CRC теста 22BD7054
     CRC копии 22BD7054
     Точное извлечение (достоверность 1)  [1B58B12C]  (AR v2)
     Копирование... OK

Трек 13

     Имя файла H:\Зарубежный джаз\VA - La Scena Olandese 2004\13 Icp Orchestra - Mixed Caravan.wav

     Пиковый уровень 100.0 %
     Скорость извлечения 5.4 X
     Качество трека 100.0 %
     CRC теста 4073B26A
     CRC копии 4073B26A
     Точное извлечение (достоверность 1)  [8FAFE8E5]  (AR v2)
     Копирование... OK

Трек 14

     Имя файла H:\Зарубежный джаз\VA - La Scena Olandese 2004\14 Fuhler & Bennink & DeJoode - Elf in Een Dozjin.wav

     Пиковый уровень 99.9 %
     Скорость извлечения 4.9 X
     Качество трека 100.0 %
     CRC теста 8F1E6FA1
     CRC копии 8F1E6FA1
     Точное извлечение (достоверность 1)  [FC5784C0]  (AR v2)
     Копирование... OK

Трек 15

     Имя файла H:\Зарубежный джаз\VA - La Scena Olandese 2004\15 Maarten Altena Nonet - Buona notte.wav

     Пиковый уровень 99.9 %
     Скорость извлечения 4.5 X
     Качество трека 99.9 %
     CRC теста F2AFF9FE
     CRC копии F2AFF9FE
     Точное извлечение (достоверность 1)  [67DE0D0E]  (AR v2)
     Копирование... OK

Все треки извлечены точно

Ошибок не произошло

Конец отчёта

---- CUETools DB Plugin V2.1.6

[CTDB TOCID: Ct_1CmVssZl.RbDLtID08HVipIc-] found
Submit result:
Track | CTDB Status
  1   | (6/6) Accurately ripped
  2   | (6/6) Accurately ripped
  3   | (6/6) Accurately ripped
  4   | (6/6) Accurately ripped
  5   | (6/6) Accurately ripped
  6   | (6/6) Accurately ripped
  7   | (6/6) Accurately ripped
  8   | (6/6) Accurately ripped
  9   | (6/6) Accurately ripped
 10   | (6/6) Accurately ripped
 11   | (6/6) Accurately ripped
 12   | (6/6) Accurately ripped
 13   | (6/6) Accurately ripped
 14   | (6/6) Accurately ripped
 15   | (6/6) Accurately ripped

==== Контрольная сумма отчёта 7C5E098419675BCFE8007FE62752EA1882F6E0E44C339E8BFEF1207ADEBF276C ====
Содержание индексной карты (.CUE)
REM GENRE Jazz
REM DATE 2004
REM DISCID BC114C0F
REM COMMENT "ExactAudioCopy v1.3"
PERFORMER "Various Artists"
TITLE "La Scena Olandese "
REM COMPOSER ""
FILE "01 Leo Cuypers - Memories.wav" WAVE
  TRACK 01 AUDIO
    TITLE "Leo Cuypers - Memories"
    PERFORMER "Leo Cuypers"
    REM COMPOSER ""
    INDEX 01 00:00:00
FILE "02 Trio Braamdejoodevatcher - Orange.wav" WAVE
  TRACK 02 AUDIO
    TITLE "Trio Braamdejoodevatcher - Orange"
    PERFORMER "Trio Braamdejoodevatcher"
    REM COMPOSER ""
    INDEX 01 00:00:00
FILE "03 John Zorn Quartett - Brozziman.wav" WAVE
  TRACK 03 AUDIO
    TITLE "John Zorn Quartett - Brozziman"
    PERFORMER "John Zorn Quartett"
    REM COMPOSER ""
    INDEX 01 00:00:00
FILE "04 Available Jelly - Uninhibited Island.wav" WAVE
  TRACK 04 AUDIO
    TITLE "Available Jelly - Uninhibited Island"
    PERFORMER "Available Jelly"
    REM COMPOSER ""
    INDEX 01 00:00:00
FILE "05 Willem Breuker Kollektief - Hap Sap (But Not From Jaffa).wav" WAVE
  TRACK 05 AUDIO
    TITLE "Willem Breuker Kollektief - Hap Sap (But Not From Jaffa)"
    PERFORMER "Willem Breuker Kollektief"
    REM COMPOSER ""
    INDEX 01 00:00:00
FILE "06 Eric Vloeimans - Boom-Petit.wav" WAVE
  TRACK 06 AUDIO
    TITLE "Eric Vloeimans - Boom-Petit"
    PERFORMER "Eric Vloeimans"
    REM COMPOSER ""
    INDEX 01 00:00:00
FILE "07 Theo Loevendie Quartett - Bayram.wav" WAVE
  TRACK 07 AUDIO
    TITLE "Theo Loevendie Quartett - Bayram"
    PERFORMER "Theo Loevendie Quartett"
    REM COMPOSER ""
    INDEX 01 00:00:00
FILE "08 Amsterdam String Trio - Trench Muzak.wav" WAVE
  TRACK 08 AUDIO
    TITLE "Amsterdam String Trio - Trench Muzak"
    PERFORMER "Amsterdam String Trio"
    REM COMPOSER ""
    INDEX 01 00:00:00
FILE "09 Sean Bergin's Mob - Monkey Woman.wav" WAVE
  TRACK 09 AUDIO
    TITLE "Sean Bergin's Mob - Monkey Woman"
    PERFORMER "Sean Bergin's Mob"
    REM COMPOSER ""
    INDEX 01 00:00:00
FILE "10 Ab Baars Trio - Igor's Bransle.wav" WAVE
  TRACK 10 AUDIO
    TITLE "Ab Baars Trio - Igor's Bransle"
    PERFORMER "Ab Baars Trio"
    REM COMPOSER ""
    INDEX 01 00:00:00
FILE "11 Misha Mengelberg Quartett - Total Loss.wav" WAVE
  TRACK 11 AUDIO
    TITLE "Misha Mengelberg Quartett - Total Loss"
    PERFORMER "Misha Mengelberg Quartett"
    REM COMPOSER ""
    INDEX 01 00:00:00
FILE "12 Corrie Van Bingsbergen - Dat Had Je Gedacht.wav" WAVE
  TRACK 12 AUDIO
    TITLE "Corrie Van Bingsbergen - Dat Had Je Gedacht"
    PERFORMER "Corrie Van Bingsbergen"
    REM COMPOSER ""
    INDEX 01 00:00:00
FILE "13 Icp Orchestra - Mixed Caravan.wav" WAVE
  TRACK 13 AUDIO
    TITLE "Icp Orchestra - Mixed Caravan"
    PERFORMER "Icp Orchestra"
    REM COMPOSER ""
    INDEX 01 00:00:00
FILE "14 Fuhler & Bennink & DeJoode - Elf in Een Dozjin.wav" WAVE
  TRACK 14 AUDIO
    TITLE "Fuhler & Bennink & DeJoode - Elf in Een Dozjin"
    PERFORMER "Fuhler-Bennink-DeJoode"
    REM COMPOSER ""
    INDEX 01 00:00:00
FILE "15 Maarten Altena Nonet - Buona notte.wav" WAVE
  TRACK 15 AUDIO
    TITLE "Maarten Altena Nonet - Buona notte"
    PERFORMER "Maarten Altena Nonet"
    REM COMPOSER ""
    INDEX 01 00:00:00
Any questions - support@pro-jazz.com. Есть вопросы - support@pro-jazz.com
22:21
215
Нет комментариев. Ваш будет первым!