Поиск

2004 VA - Ballads, Vol. 4: The World {enja} [CD]

2004 VA - Ballads, Vol. 4: The World {enja} [CD]
Издатель (лейбл):
Носитель:
CD
Тип рипа:
image+.cue
Аудиокодек:
APE (*.ape)
Битрейт аудио:
lossless
Время звучания:
00:59:31
Наличие сканов:
только обложка
Треклист:

01. Jenny Evans - Remember Me
02. Myrriam Alter - Home
03. Chet Baker - Peace
04. Rosana & Zelia- Azul Amento
05. Dusko Goykovich - Insensatez
06. Antonio Farao - Malinconie
07. Gilad Atzmon - Balladi
08. Jean-Louis Matinier - Mystitorway
09. Walter Norris - A Child Is Born
10. Nunu! - Frunza Verde, Solz De Peschte
11. Maria Joao - Fado
12. Abdullah Ibrahim - Blue Bolero

Лог создания рипа
Exact Audio Copy V0.99 prebeta 4 from 23. January 2008
Отчёт EAC об извлечении, выполненном 13. октября 2009, 15:12
Various Artists / Ballads 4: The World
Дисковод: PLEXTOR DVDR PX-800A Adapter: 0 ID: 0
Режим чтения : Достоверность
Использование точного потока : Да
Отключение кэша аудио : Да
Использование указателей C2 : Нет
Коррекция смещения при чтении : 48
Способность читать области Lead-in и Lead-out : Нет
Заполнение пропущенных сэмплов тишиной : Да
Удаление блоков с тишиной в начале и конце : Нет
При вычислениях CRC использовались нулевые сэмплы : Да
Интерфейс : Встроенный Win32-интерфейс для Win NT/2000
Выходной формат : Внутренние WAV-операции
Формат сэмплов : 44.100 Гц; 16 бит; стерео
TOC извлечённого CD
Трек | Старт | Длительность | Начальный сектор | Конечный сектор
---------------------------------------------------------------------
1 | 0:00.00 | 5:50.33 | 0 | 26282
2 | 5:50.33 | 4:08.00 | 26283 | 44882
3 | 9:58.33 | 4:09.23 | 44883 | 63580
4 | 14:07.56 | 4:32.01 | 63581 | 83981
5 | 18:39.57 | 8:04.66 | 83982 | 120347
6 | 26:44.48 | 4:09.01 | 120348 | 139023
7 | 30:53.49 | 5:42.18 | 139024 | 164691
8 | 36:35.67 | 3:31.56 | 164692 | 180572
9 | 40:07.48 | 4:36.57 | 180573 | 201329
10 | 44:44.30 | 5:11.62 | 201330 | 224716
11 | 49:56.17 | 5:35.50 | 224717 | 249891
12 | 55:31.67 | 3:59.58 | 249892 | 267874
Характеристики диапазона извлечения и сообщения об ошибках
Выбранный диапазон
Имя файла D:\Lossless\Ballads - Enja-4 CD\CD-3 - Ballads The World - 2004\Various Artists - Ballads 4 The World.wav
Пиковый уровень 97.7 %
Качество диапазона 99.9 %
CRC копии 3AE0D089
Копирование... OK
Ошибок не произошло
Конец отчёта
13:34
345
Нет комментариев. Ваш будет первым!