Поиск

2004 Steven Bernstein - Diaspora Hollywood {Tzadik TZA 7191CD}

2004 Steven Bernstein - Diaspora Hollywood {Tzadik TZA 7191CD}
Треклист:
Страна-производитель диска: USA
Год издания диска: 2004
Издатель (лейбл): Tzadik
Номер по каталогу: TZ 7191
Аудио кодек: FLAC (*.flac)
Тип рипа: image+.cue
Битрейт аудио: lossless
Продолжительность: 59:25
Источник (релизер): Darkman
Наличие сканов в содержимом раздачи: да (полный набор сканов, 300 dpi)
Треклист:
01. Yis May Hoo
02. King Kong
03. Jehudis Bas Zion
04. Hollywood Diaspora
05. Meyer Lansky
06. B'rich Sh'me
07. Eliyahoo Hanavee
08. Sim Shalom
09. B'archu
10. V'shamru
11. Havenu Shalom Alechum
 
Лог создания рипа (EAC Log)
Exact Audio Copy V0.99 prebeta 5 from 4. May 2009
EAC extraction logfile from 22. October 2010, 3:25
Steven Bernstein / Diaspora Hollywood
Used drive  : HL-DT-STDVD-RAM GSA-H54N   Adapter: 0  ID: 0
Read mode               : Secure
Utilize accurate stream : Yes
Defeat audio cache      : Yes
Make use of C2 pointers : No
Read offset correction                      : 102
Overread into Lead-In and Lead-Out          : No
Fill up missing offset samples with silence : Yes
Delete leading and trailing silent blocks   : No
Null samples used in CRC calculations       : Yes
Used interface                              : Native Win32 interface for Win NT & 2000
Used output format              : User Defined Encoder
Selected bitrate                : 320 kBit/s
Quality                         : High
Add ID3 tag                     : No
Command line compressor         : C:\Program Files\Exact Audio Copy\Flac\flac.exe
Additional command line options : -8 -V %s
TOC of the extracted CD
     Track |   Start  |  Length  | Start sector | End sector
    ---------------------------------------------------------
        1  |  0:00.00 |  5:08.18 |         0    |    23117
        2  |  5:08.18 |  3:12.60 |     23118    |    37577
        3  |  8:21.03 |  5:33.68 |     37578    |    62620
        4  | 13:54.71 |  3:52.67 |     62621    |    80087
        5  | 17:47.63 |  5:04.31 |     80088    |   102918
        6  | 22:52.19 |  9:21.28 |    102919    |   145021
        7  | 32:13.47 |  5:16.71 |    145022    |   168792
        8  | 37:30.43 |  4:01.59 |    168793    |   186926
        9  | 41:32.27 |  4:29.07 |    186927    |   207108
       10  | 46:01.34 |  8:36.45 |    207109    |   245853
       11  | 54:38.04 |  4:47.26 |    245854    |   267404
Range status and errors
Selected range
     Filename C:\EAC\Steven Bernstein - Diaspora Hollywood.wav
     Peak level 98.8 %
     Range quality 100.0 %
     Test CRC A7D5195E
     Copy CRC A7D5195E
     Copy OK
No errors occurred
AccurateRip summary
Track  1  accurately ripped (confidence 1)  [6AA26753]
Track  2  accurately ripped (confidence 1)  [C3396550]
Track  3  accurately ripped (confidence 1)  [8DDDFCD3]
Track  4  accurately ripped (confidence 1)  [6BC9453A]
Track  5  accurately ripped (confidence 1)  [B8A36EDD]
Track  6  accurately ripped (confidence 1)  [3DD237F1]
Track  7  accurately ripped (confidence 1)  [90ED52A7]
Track  8  accurately ripped (confidence 1)  [4FC97D18]
Track  9  accurately ripped (confidence 1)  [A533F5C0]
Track 10  accurately ripped (confidence 1)  [B8D9160B]
Track 11  accurately ripped (confidence 1)  [17A5F321]
All tracks accurately ripped
End of status report
 
Содержание индексной карты (.CUE)
REM GENRE Jazz
REM DATE 2004
REM DISCID 8D0DED0B
REM COMMENT "ExactAudioCopy v0.99pb5"
PERFORMER "Steven Bernstein"
TITLE "Diaspora Hollywood "
FILE "Steven Bernstein - Diaspora Hollywood.flac" WAVE
  TRACK 01 AUDIO
    TITLE "Yis May Hoo"
    PERFORMER "Steven Bernstein"
    INDEX 01 00:00:00
  TRACK 02 AUDIO
    TITLE "King Kong"
    PERFORMER "Steven Bernstein"
    INDEX 00 05:06:09
    INDEX 01 05:08:18
  TRACK 03 AUDIO
    TITLE "Jehudis Bas Zion"
    PERFORMER "Steven Bernstein"
    INDEX 01 08:21:03
  TRACK 04 AUDIO
    TITLE "Hollywood Diaspora"
    PERFORMER "Steven Bernstein"
    INDEX 01 13:54:71
  TRACK 05 AUDIO
    TITLE "Meyer Lansky"
    PERFORMER "Steven Bernstein"
    INDEX 01 17:47:63
  TRACK 06 AUDIO
    TITLE "B'rich Sh'me"
    PERFORMER "Steven Bernstein"
    INDEX 01 22:52:19
  TRACK 07 AUDIO
    TITLE "Eliyahoo Hanavee"
    PERFORMER "Steven Bernstein"
    INDEX 01 32:13:47
  TRACK 08 AUDIO
    TITLE "Sim Shalom"
    PERFORMER "Steven Bernstein"
    INDEX 01 37:30:43
  TRACK 09 AUDIO
    TITLE "B'archu"
    PERFORMER "Steven Bernstein"
    INDEX 01 41:32:27
  TRACK 10 AUDIO
    TITLE "V'shamru"
    PERFORMER "Steven Bernstein"
    INDEX 01 46:01:34
  TRACK 11 AUDIO
    TITLE "Havenu Shalom Alechum"
    PERFORMER "Steven Bernstein"
    INDEX 01 54:38:04
Состав:
  • Steven Bernstein — Trumpet, Flugelhorn
  • Pablo Calogero — Flute, Clarinet (Bass), Flute (Bass), Sax (Baritone), Balloon Flute
  • D.J. Bonebrake — Vibraphone
  • David Piltch — Bass
  • Danny Frankel — Percussion, Bongos, Drums
  • Produced by Steven Bernstein
  • Executive Producer — John Zorn
  • Associate Producer — Kazunori Sugiyama

Recorded February 12-14, 2004 by Woody Jackson III at Solidstatesman Studio, Hollywood, USA

19:21
430
Нет комментариев. Ваш будет первым!