Поиск

2004 Jay Leonhart Trio - Fly Me To The Moon - Tribute To Ray Brown (2018) {Venus} [DSD64 ISO]

2004 Jay Leonhart Trio - Fly Me To The Moon - Tribute To Ray Brown (2018) {Venus} [DSD64 ISO]
Стили:
Дата записи диска:
23 июля 2003
Место записи:
Avatar Studios, New York City, NY, USA
Дата издания диска:
29 июня 2004
Издатель (лейбл):
Номер по каталогу:
VHGD-283
Носитель:
SACD
Формат:
DSD
Тип рипа:
image
Контейнер:
ISO (*.iso)
Количество каналов:
2.0
Разрядность/ЧД:
64 (2,8 MHz/1 Bit)
Битрейт аудио:
lossless
Наличие сканов:
только обложка

01. When Lights Are Low  05:16
02. On the Street Where You Live  05:31
03. Skylark  05:05
04. There Is No Greater Love  06:15
05. That Old Feeling  06:35
06. Just in Time  04:59
07. Alone Together  07:05
08. Fly Me to the Moon  05:42
09. I've Got the World on a String  06:35
10. Dream Dancing  06:54
11. Some Other Time  05:54

Состав:
  •     Bass – Jay Leonhart
  •     Engineer – James Farber
  •     Guitar – Joe Cohn
  •     Mastered By – Shuji Kitamura, Tetsuo Hara
  •     Mixed By – Shuji Kitamura, Tetsuo Hara
  •     Piano – Benny Green
  •     Producer – Tetsuo Hara, Todd Barkan
Лог проверки качества
foobar2000 1.6.4 / Dynamic Range Meter 1.1.1
log date: 2021-08-08 20:24:24
--------------------------------------------------------------------------------
Analyzed: JAY LEONHART TRIO / Fly Me To The Moon
--------------------------------------------------------------------------------
DR         Peak         RMS     Duration Track
--------------------------------------------------------------------------------
DR6       -4.99 dB   -13.16 dB      5:17 01-When Lights Are Low
DR5       -4.90 dB   -11.77 dB      5:32 02-On The Street Where You Live
DR8       -5.03 dB   -14.94 dB      5:05 03-Skylark
DR7       -5.05 dB   -13.56 dB      6:16 04-There Is No Greater Love
DR6       -4.91 dB   -13.20 dB      6:36 05-That Old Feeling
DR6       -4.98 dB   -13.30 dB      4:59 06-Just In Time
DR7       -4.84 dB   -14.74 dB      7:06 07-Alone Together
DR5       -4.90 dB   -12.08 dB      5:42 08-Fly Me To The Moon
DR6       -4.87 dB   -12.09 dB      6:35 09-I've Got The World On A String
DR8       -4.99 dB   -15.87 dB      6:55 10-Dream Dancing
DR6       -4.99 dB   -13.27 dB      5:54 11-Some Other Time
--------------------------------------------------------------------------------
Number of tracks:  11
Official DR value: DR6
Samplerate:        2822400 Hz / PCM Samplerate: 88200 Hz
Channels:          2
Bits per sample:   1
Bitrate:           5645 kbps
Codec:             DSD64
================================================================================
Приватный:
Нет (DHT включён)
Размер:
2.66 Гб (2,852,118,135 байт) » файлов: 5
Участники:
0 раздают, 0 качают (0 участников всего)
Внешние участники:
11 раздают, 4 качают (15 участников всего) [ Обновить ]
11:52
477
Нет комментариев. Ваш будет первым!