Поиск

2003 Mildred Bailey - 1943-1945 {The Chronological Classics 1316} [CD]

2003 Mildred Bailey - 1943-1945 {The Chronological Classics 1316} [CD]
Стили:
Издатель (лейбл):
Треклист:
01. Rockin' Chair (4:37)
02. Sunday, Monday or Always (3:53)
03. Scrap Your Fat (4:28)
04. More Than You Know (3:12)
05. Squeeze Me (2:50)
06. Someday Sweetheart (3:50)
07. Downhearted Blues (5:13)
08. Hold On (2:56)
09. Hold On, Keep You Hand on the Plow (3:15)
10. Summertime (2:59)
11. Right as the Rain (3:40)
12. From the Land of the Sky Blue Water (2:35)
13. The Love I Long For (1:48)
14. Sometimes I Feel Like a Motherless Child (3:37)
15. Dinah (3:23)
16. Which of the Great Forty-Eight (3:24)
17. Wish You Were Waitin' for Me (3:50)
18. Rockin' Chair (2:20)
19. Honeysuckle Rose (2:08)
20. The Man I Love (3:08)
21. The Gypsy in My Soul (2:53)
22. I'm Glad There Is You (3:07)
23. It's Never Too Late to Pray (2:53)
Состав:

Носитель: CD
Страна-производитель диска (релиза): Франция
Год издания: 2003
Издатель (лейбл): Classics
Номер по каталогу: 1316
Страна исполнителя (группы): США
Аудиокодек: FLAC (*.flac)
Тип рипа: tracks+.cue
Битрейт аудио: lossless
Продолжительность: 75:59
Источник (релизер): smacito (what)
Наличие сканов в содержимом раздачи: сетевые

Лог создания рипа
Exact Audio Copy V1.0 beta 3 from 29. August 2011
EAC extraction logfile from 26. December 2014, 10:50
Mildred Bailey / The Chronological Classics, 1943-1945
Used drive  : MATSHITADVD-RAM UJ8C2 S   Adapter: 0  ID: 0
Read mode               : Secure
Utilize accurate stream : Yes
Defeat audio cache      : Yes
Make use of C2 pointers : No
Read offset correction                      : 103
Overread into Lead-In and Lead-Out          : No
Fill up missing offset samples with silence : Yes
Delete leading and trailing silent blocks   : No
Null samples used in CRC calculations       : Yes
Used interface                              : Native Win32 interface for Win NT & 2000
Gap handling                                : Appended to previous track
Used output format              : User Defined Encoder
Selected bitrate                : 1024 kBit/s
Quality                         : High
Add ID3 tag                     : No
Command line compressor         : C:\Program Files (x86)\Exact Audio Copy\Flac\flac.exe
Additional command line options : -8 -V -T "ARTIST=%artist%" -T "TITLE=%title%" -T "ALBUM=%albumtitle%" -T "DATE=%year%" -T "TRACKNUMBER=%tracknr%" -T "GENRE=%genre%" -T "PERFORMER=%albuminterpret%" -T "COMPOSER=%composer%" %haslyrics%--tag-from-file=LYRICS="%lyricsfile%"%haslyrics% -T "ALBUMARTIST=%albumartist%" -T "DISCNUMBER=%cdnumber%" -T "TOTALDISCS=%totalcds%" -T "TOTALTRACKS=%numtracks%" -T "COMMENT=%comment%" %source% -o %dest%
TOC of the extracted CD
     Track |   Start  |  Length  | Start sector | End sector
    ---------------------------------------------------------
        1  |  0:00.00 |  4:37.37 |         0    |    20811
        2  |  4:37.37 |  3:53.03 |     20812    |    38289
        3  |  8:30.40 |  4:28.02 |     38290    |    58391
        4  | 12:58.42 |  3:11.55 |     58392    |    72771
        5  | 16:10.22 |  2:49.40 |     72772    |    85486
        6  | 18:59.62 |  3:50.00 |     85487    |   102736
        7  | 22:49.62 |  5:13.20 |    102737    |   126231
        8  | 28:03.07 |  2:55.65 |    126232    |   139421
        9  | 30:58.72 |  3:15.00 |    139422    |   154046
       10  | 34:13.72 |  2:58.48 |    154047    |   167444
       11  | 37:12.45 |  3:39.50 |    167445    |   183919
       12  | 40:52.20 |  2:35.22 |    183920    |   195566
       13  | 43:27.42 |  1:48.33 |    195567    |   203699
       14  | 45:16.00 |  3:37.10 |    203700    |   219984
       15  | 48:53.10 |  3:23.25 |    219985    |   235234
       16  | 52:16.35 |  3:24.17 |    235235    |   250551
       17  | 55:40.52 |  3:49.60 |    250552    |   267786
       18  | 59:30.37 |  2:19.50 |    267787    |   278261
       19  | 61:50.12 |  2:07.68 |    278262    |   287854
       20  | 63:58.05 |  3:08.30 |    287855    |   301984
       21  | 67:06.35 |  2:53.02 |    301985    |   314961
       22  | 69:59.37 |  3:07.25 |    314962    |   329011
       23  | 73:06.62 |  2:52.38 |    329012    |   341949
Track  1
     Filename D:\My Documents\Dropbox\My Music\What.cd project\Mildred Bailey - 2003 - The Chronological Classics, 1943-1945 [FLAC]\01 - Mildred Bailey - Rockin' Chair.wav
     Pre-gap length  0:00:02.00
     Peak level 99.9 %
     Extraction speed 2.6 X
     Track quality 100.0 %
     Test CRC FBA8DB80
     Copy CRC FBA8DB80
     Accurately ripped (confidence 1)  [6508CAB8]  (AR v1)
     Copy OK
Track  2
     Filename D:\My Documents\Dropbox\My Music\What.cd project\Mildred Bailey - 2003 - The Chronological Classics, 1943-1945 [FLAC]\02 - Mildred Bailey - Sunday, Monday Or Always.wav
     Peak level 100.0 %
     Extraction speed 2.1 X
     Track quality 99.9 %
     Test CRC CA0F0BE6
     Copy CRC CA0F0BE6
     Accurately ripped (confidence 1)  [CCE37D70]  (AR v1)
     Copy OK
Track  3
     Filename D:\My Documents\Dropbox\My Music\What.cd project\Mildred Bailey - 2003 - The Chronological Classics, 1943-1945 [FLAC]\03 - Mildred Bailey - Scrap Your Fat.wav
     Peak level 99.9 %
     Extraction speed 3.1 X
     Track quality 100.0 %
     Test CRC 78A0281A
     Copy CRC 78A0281A
     Accurately ripped (confidence 1)  [96A454F9]  (AR v1)
     Copy OK
Track  4
     Filename D:\My Documents\Dropbox\My Music\What.cd project\Mildred Bailey - 2003 - The Chronological Classics, 1943-1945 [FLAC]\04 - Mildred Bailey - More Than You Know.wav
     Peak level 99.9 %
     Extraction speed 3.2 X
     Track quality 100.0 %
     Test CRC 349E32FA
     Copy CRC 349E32FA
     Accurately ripped (confidence 1)  [A444E595]  (AR v1)
     Copy OK
Track  5
     Filename D:\My Documents\Dropbox\My Music\What.cd project\Mildred Bailey - 2003 - The Chronological Classics, 1943-1945 [FLAC]\05 - Mildred Bailey - Squeeze Me.wav
     Pre-gap length  0:00:02.56
     Peak level 100.0 %
     Extraction speed 3.2 X
     Track quality 100.0 %
     Test CRC 671BCBCE
     Copy CRC 671BCBCE
     Accurately ripped (confidence 1)  [FC6F2CD0]  (AR v1)
     Copy OK
Track  6
     Filename D:\My Documents\Dropbox\My Music\What.cd project\Mildred Bailey - 2003 - The Chronological Classics, 1943-1945 [FLAC]\06 - Mildred Bailey - Someday Sweetheart.wav
     Pre-gap length  0:00:02.56
     Peak level 100.0 %
     Extraction speed 3.4 X
     Track quality 100.0 %
     Test CRC 106B71E9
     Copy CRC 106B71E9
     Accurately ripped (confidence 1)  [3347D80D]  (AR v1)
     Copy OK
Track  7
     Filename D:\My Documents\Dropbox\My Music\What.cd project\Mildred Bailey - 2003 - The Chronological Classics, 1943-1945 [FLAC]\07 - Mildred Bailey - Downhearted Blues.wav
     Pre-gap length  0:00:02.56
     Peak level 100.0 %
     Extraction speed 3.8 X
     Track quality 100.0 %
     Test CRC 6F2B2FD3
     Copy CRC 6F2B2FD3
     Accurately ripped (confidence 1)  [CBEA0921]  (AR v1)
     Copy OK
Track  8
     Filename D:\My Documents\Dropbox\My Music\What.cd project\Mildred Bailey - 2003 - The Chronological Classics, 1943-1945 [FLAC]\08 - Mildred Bailey - Hold On.wav
     Pre-gap length  0:00:02.56
     Peak level 100.0 %
     Extraction speed 3.6 X
     Track quality 100.0 %
     Test CRC 4DD29826
     Copy CRC 4DD29826
     Accurately ripped (confidence 1)  [B867125E]  (AR v1)
     Copy OK
Track  9
     Filename D:\My Documents\Dropbox\My Music\What.cd project\Mildred Bailey - 2003 - The Chronological Classics, 1943-1945 [FLAC]\09 - Mildred Bailey - Hold On, Keep You Hand On The Mow.wav
     Pre-gap length  0:00:02.56
     Peak level 100.0 %
     Extraction speed 3.8 X
     Track quality 100.0 %
     Test CRC 2F287731
     Copy CRC 2F287731
     Accurately ripped (confidence 1)  [2750957A]  (AR v1)
     Copy OK
Track 10
     Filename D:\My Documents\Dropbox\My Music\What.cd project\Mildred Bailey - 2003 - The Chronological Classics, 1943-1945 [FLAC]\10 - Mildred Bailey - Summertime.wav
     Pre-gap length  0:00:02.56
     Peak level 99.2 %
     Extraction speed 2.7 X
     Track quality 99.9 %
     Test CRC FEA337B7
     Copy CRC FEA337B7
     Accurately ripped (confidence 1)  [FBA2D53F]  (AR v1)
     Copy OK
Track 11
     Filename D:\My Documents\Dropbox\My Music\What.cd project\Mildred Bailey - 2003 - The Chronological Classics, 1943-1945 [FLAC]\11 - Mildred Bailey - Right As The Rain.wav
     Pre-gap length  0:00:02.57
     Peak level 95.8 %
     Extraction speed 3.7 X
     Track quality 100.0 %
     Test CRC 4204A7F4
     Copy CRC 4204A7F4
     Accurately ripped (confidence 1)  [7D1496B3]  (AR v1)
     Copy OK
Track 12
     Filename D:\My Documents\Dropbox\My Music\What.cd project\Mildred Bailey - 2003 - The Chronological Classics, 1943-1945 [FLAC]\12 - Mildred Bailey - From The Land Of The Sky Blue Water.wav
     Pre-gap length  0:00:02.57
     Peak level 79.4 %
     Extraction speed 3.9 X
     Track quality 100.0 %
     Test CRC 4D98B575
     Copy CRC 4D98B575
     Accurately ripped (confidence 1)  [DE122EB0]  (AR v1)
     Copy OK
Track 13
     Filename D:\My Documents\Dropbox\My Music\What.cd project\Mildred Bailey - 2003 - The Chronological Classics, 1943-1945 [FLAC]\13 - Mildred Bailey - The Love I Long For.wav
     Pre-gap length  0:00:02.56
     Peak level 99.3 %
     Extraction speed 3.1 X
     Track quality 100.0 %
     Test CRC 2B42C899
     Copy CRC 2B42C899
     Accurately ripped (confidence 1)  [348B2CA7]  (AR v1)
     Copy OK
Track 14
     Filename D:\My Documents\Dropbox\My Music\What.cd project\Mildred Bailey - 2003 - The Chronological Classics, 1943-1945 [FLAC]\14 - Mildred Bailey - Sometimes I Feel Like A Motherless Child.wav
     Pre-gap length  0:00:02.57
     Peak level 97.4 %
     Extraction speed 2.8 X
     Track quality 99.9 %
     Test CRC C9294D4E
     Copy CRC C9294D4E
     Accurately ripped (confidence 1)  [DB82C188]  (AR v1)
     Copy OK
Track 15
     Filename D:\My Documents\Dropbox\My Music\What.cd project\Mildred Bailey - 2003 - The Chronological Classics, 1943-1945 [FLAC]\15 - Mildred Bailey - Dinah.wav
     Pre-gap length  0:00:02.57
     Peak level 99.0 %
     Extraction speed 4.1 X
     Track quality 100.0 %
     Test CRC 838E46C5
     Copy CRC 838E46C5
     Accurately ripped (confidence 1)  [35DB9A36]  (AR v1)
     Copy OK
Track 16
     Filename D:\My Documents\Dropbox\My Music\What.cd project\Mildred Bailey - 2003 - The Chronological Classics, 1943-1945 [FLAC]\16 - Mildred Bailey - Which Of The Great Forty-Eight.wav
     Pre-gap length  0:00:02.57
     Peak level 99.5 %
     Extraction speed 4.4 X
     Track quality 100.0 %
     Test CRC D2B01DCD
     Copy CRC D2B01DCD
     Accurately ripped (confidence 1)  [22F93EDB]  (AR v1)
     Copy OK
Track 17
     Filename D:\My Documents\Dropbox\My Music\What.cd project\Mildred Bailey - 2003 - The Chronological Classics, 1943-1945 [FLAC]\17 - Mildred Bailey - Wish You Were Waitin' For Me.wav
     Pre-gap length  0:00:02.56
     Peak level 99.9 %
     Extraction speed 4.4 X
     Track quality 100.0 %
     Test CRC 9AE1BB0A
     Copy CRC 9AE1BB0A
     Accurately ripped (confidence 1)  [C2CACD27]  (AR v1)
     Copy OK
Track 18
     Filename D:\My Documents\Dropbox\My Music\What.cd project\Mildred Bailey - 2003 - The Chronological Classics, 1943-1945 [FLAC]\18 - Mildred Bailey - Rockin' Chair.wav
     Pre-gap length  0:00:02.56
     Peak level 90.6 %
     Extraction speed 3.9 X
     Track quality 100.0 %
     Test CRC 5DCCF018
     Copy CRC 5DCCF018
     Accurately ripped (confidence 1)  [47D1209E]  (AR v1)
     Copy OK
Track 19
     Filename D:\My Documents\Dropbox\My Music\What.cd project\Mildred Bailey - 2003 - The Chronological Classics, 1943-1945 [FLAC]\19 - Mildred Bailey - Honeysuckle Rose.wav
     Pre-gap length  0:00:02.56
     Peak level 99.9 %
     Extraction speed 3.7 X
     Track quality 100.0 %
     Test CRC 7C85794F
     Copy CRC 7C85794F
     Accurately ripped (confidence 1)  [B35CFED3]  (AR v1)
     Copy OK
Track 20
     Filename D:\My Documents\Dropbox\My Music\What.cd project\Mildred Bailey - 2003 - The Chronological Classics, 1943-1945 [FLAC]\20 - Mildred Bailey - The Man I Love.wav
     Pre-gap length  0:00:02.57
     Peak level 100.0 %
     Extraction speed 4.8 X
     Track quality 100.0 %
     Test CRC 45071065
     Copy CRC 45071065
     Accurately ripped (confidence 1)  [1F76BFB9]  (AR v1)
     Copy OK
Track 21
     Filename D:\My Documents\Dropbox\My Music\What.cd project\Mildred Bailey - 2003 - The Chronological Classics, 1943-1945 [FLAC]\21 - Mildred Bailey - The Gypsy In My Soul.wav
     Pre-gap length  0:00:02.57
     Peak level 97.1 %
     Extraction speed 4.8 X
     Track quality 100.0 %
     Test CRC 748EFCD9
     Copy CRC 748EFCD9
     Accurately ripped (confidence 1)  [1B6FFC30]  (AR v1)
     Copy OK
Track 22
     Filename D:\My Documents\Dropbox\My Music\What.cd project\Mildred Bailey - 2003 - The Chronological Classics, 1943-1945 [FLAC]\22 - Mildred Bailey - I'm Glad There Is You.wav
     Pre-gap length  0:00:02.56
     Peak level 99.3 %
     Extraction speed 4.7 X
     Track quality 100.0 %
     Test CRC 013AB5BD
     Copy CRC 013AB5BD
     Accurately ripped (confidence 1)  [23DC580D]  (AR v1)
     Copy OK
Track 23
     Filename D:\My Documents\Dropbox\My Music\What.cd project\Mildred Bailey - 2003 - The Chronological Classics, 1943-1945 [FLAC]\23 - Mildred Bailey - It's Never Too Late To Pray.wav
     Pre-gap length  0:00:02.56
     Peak level 99.7 %
     Extraction speed 5.1 X
     Track quality 100.0 %
     Test CRC DA48450A
     Copy CRC DA48450A
     Accurately ripped (confidence 1)  [482FC6B3]  (AR v1)
     Copy OK
All tracks accurately ripped
No errors occurred
End of status report
==== Log checksum 0C5CEA65168C1C7CC580FE152CFBEF53532C2E8CDE036BC0C2413664D1E208BD ====
По всем вопросам пишите личное сообщение пользователю M0p94ok.
16:41
384
Нет комментариев. Ваш будет первым!