Поиск

2003 Jimmy Rosenberg - Django's Tiger {Hot Club HCRCD 146} [CD]

2003 Jimmy Rosenberg - Django's Tiger {Hot Club HCRCD 146} [CD]
Дата записи диска:
9 декабря - 10 декабря 2002
Место записи:
Cookie Factory Studio, Oslo, Norway
Дата издания диска:
30 апреля 2003
Номер по каталогу:
HCRCD 146
Носитель:
CD
Тип рипа:
tracks
Аудиокодек:
FLAC (*.flac)
Битрейт аудио:
lossless
Время звучания:
00:49:58
Наличие сканов:
web
Страна-производитель диска (релиза):
Netherlands
Релизёр (источник):
oceaneyes (RED)

Треклист:

01. Shine  02:53
02. Candy  03:48
03. Swanee River  03:28
04. I'll See You in My Dreams  03:26
05. Seul Ce Soir  05:07
06. Malibu  03:04
07. Django's Tiger  03:48
08. Sweet Sue  02:35
09. Love's Melody  04:08
10. Indiana  03:02
11. C'est Si Bon  05:14
12. Nagasaki  01:52
13. I Love You  03:02
14. MistyFinn Hauge  04:24

Лог создания рипа
X Lossless Decoder version 20191004 (152.0)

XLD extraction logfile from 2020-11-26 18:25:43 +0100

Jimmy Rosenberg / Django's Tiger (Swinging With Hot Club De Norvège)

Used drive : HL-DT-ST DVDRAM GT34N (revision AS00)
Media type : Pressed CD

Ripper mode             : XLD Secure Ripper
Disable audio cache     : OK for the drive with a cache less than 1375KiB
Make use of C2 pointers : NO
Read offset correction  : 103
Max retry count         : 20
Gap status              : Analyzed, Appended (except HTOA)

TOC of the extracted CD
     Track |   Start  |  Length  | Start sector | End sector
    ---------------------------------------------------------
        1  | 00:00:00 | 02:53:12 |         0    |    12986
        2  | 02:53:12 | 03:48:35 |     12987    |    30121
        3  | 06:41:47 | 03:28:53 |     30122    |    45774
        4  | 10:10:25 | 03:26:37 |     45775    |    61261
        5  | 13:36:62 | 05:07:70 |     61262    |    84356
        6  | 18:44:57 | 03:04:10 |     84357    |    98166
        7  | 21:48:67 | 03:48:25 |     98167    |   115291
        8  | 25:37:17 | 02:35:68 |    115292    |   126984
        9  | 28:13:10 | 04:08:12 |    126985    |   145596
       10  | 32:21:22 | 03:02:43 |    145597    |   159289
       11  | 35:23:65 | 05:14:45 |    159290    |   182884
       12  | 40:38:35 | 01:52:20 |    182885    |   191304
       13  | 42:30:55 | 03:02:57 |    191305    |   205011
       14  | 45:33:37 | 04:24:18 |    205012    |   224829

AccurateRip Summary (DiscID: 0019b19a-01129b52-aa0bb50e)
    Track 01 : OK (v2, confidence 2/2)
    Track 02 : OK (v2, confidence 2/2)
    Track 03 : OK (v2, confidence 2/2)
    Track 04 : OK (v2, confidence 2/2)
    Track 05 : OK (v2, confidence 2/2)
    Track 06 : OK (v2, confidence 2/2)
    Track 07 : OK (v2, confidence 2/2)
    Track 08 : OK (v2, confidence 2/2)
    Track 09 : OK (v2, confidence 2/2)
    Track 10 : OK (v2, confidence 2/2)
    Track 11 : OK (v2, confidence 2/2)
    Track 12 : OK (v2, confidence 2/2)
    Track 13 : OK (v2, confidence 2/2)
    Track 14 : OK (v2, confidence 2/2)
        ->All tracks accurately ripped.

All Tracks
    Album gain               : -1.73 dB
    Peak                     : 0.987946
    Statistics
        Read error                           : 0
        Jitter error (maybe fixed)           : 0
        Retry sector count                   : 0
        Damaged sector count                 : 0

Track 01
    Filename : /Users/Shared/XLD Rips/Jimmy Rosenberg - Django's Tiger (2003) [CD - FLAC - 16]/01 Jimmy Rosenberg - Shine.flac
    Pre-gap length : 00:02:00

    Track gain               : -2.05 dB
    Peak                     : 0.987610
    CRC32 hash (test run)    : 679B9D6C
    CRC32 hash               : 679B9D6C
    CRC32 hash (skip zero)   : 543EE31F
    AccurateRip v1 signature : 08435209
    AccurateRip v2 signature : FE5BE86E
        ->Accurately ripped (v2, confidence 2/2)
    Statistics
        Read error                           : 0
        Jitter error (maybe fixed)           : 0
        Retry sector count                   : 0
        Damaged sector count                 : 0

Track 02
    Filename : /Users/Shared/XLD Rips/Jimmy Rosenberg - Django's Tiger (2003) [CD - FLAC - 16]/02 Jimmy Rosenberg - Candy.flac
    Pre-gap length : 00:03:25

    Track gain               : -0.02 dB
    Peak                     : 0.986664
    CRC32 hash (test run)    : 94AA3A48
    CRC32 hash               : 94AA3A48
    CRC32 hash (skip zero)   : F82C71FC
    AccurateRip v1 signature : BDCD1455
    AccurateRip v2 signature : 3B5C6B20
        ->Accurately ripped (v2, confidence 2/2)
    Statistics
        Read error                           : 0
        Jitter error (maybe fixed)           : 0
        Retry sector count                   : 0
        Damaged sector count                 : 0

Track 03
    Filename : /Users/Shared/XLD Rips/Jimmy Rosenberg - Django's Tiger (2003) [CD - FLAC - 16]/03 Jimmy Rosenberg - Swanee River.flac
    Pre-gap length : 00:02:65

    Track gain               : -2.97 dB
    Peak                     : 0.987457
    CRC32 hash (test run)    : 89F4F594
    CRC32 hash               : 89F4F594
    CRC32 hash (skip zero)   : 5116ED8F
    AccurateRip v1 signature : 92822F5B
    AccurateRip v2 signature : E56E0B11
        ->Accurately ripped (v2, confidence 2/2)
    Statistics
        Read error                           : 0
        Jitter error (maybe fixed)           : 0
        Retry sector count                   : 0
        Damaged sector count                 : 0

Track 04
    Filename : /Users/Shared/XLD Rips/Jimmy Rosenberg - Django's Tiger (2003) [CD - FLAC - 16]/04 Jimmy Rosenberg - I'll See You In My Dreams.flac
    Pre-gap length : 00:04:00

    Track gain               : -1.00 dB
    Peak                     : 0.984680
    CRC32 hash (test run)    : 37A432F9
    CRC32 hash               : 37A432F9
    CRC32 hash (skip zero)   : BD0D0227
    AccurateRip v1 signature : 38C6B104
    AccurateRip v2 signature : C1B93829
        ->Accurately ripped (v2, confidence 2/2)
    Statistics
        Read error                           : 0
        Jitter error (maybe fixed)           : 0
        Retry sector count                   : 0
        Damaged sector count                 : 0

Track 05
    Filename : /Users/Shared/XLD Rips/Jimmy Rosenberg - Django's Tiger (2003) [CD - FLAC - 16]/05 Jimmy Rosenberg - Seul Ce Soir.flac
    Pre-gap length : 00:02:20

    Track gain               : -2.18 dB
    Peak                     : 0.987701
    CRC32 hash (test run)    : 3C08452C
    CRC32 hash               : 3C08452C
    CRC32 hash (skip zero)   : 612CB71F
    AccurateRip v1 signature : ED04E108
    AccurateRip v2 signature : 216A47DD
        ->Accurately ripped (v2, confidence 2/2)
    Statistics
        Read error                           : 0
        Jitter error (maybe fixed)           : 0
        Retry sector count                   : 0
        Damaged sector count                 : 0

Track 06
    Filename : /Users/Shared/XLD Rips/Jimmy Rosenberg - Django's Tiger (2003) [CD - FLAC - 16]/06 Jimmy Rosenberg - Malibu.flac
    Pre-gap length : 00:03:15

    Track gain               : -0.94 dB
    Peak                     : 0.987640
    CRC32 hash (test run)    : 74CB4DBC
    CRC32 hash               : 74CB4DBC
    CRC32 hash (skip zero)   : 866F4D2F
    AccurateRip v1 signature : E685FFB1
    AccurateRip v2 signature : 7E1E95BF
        ->Accurately ripped (v2, confidence 2/2)
    Statistics
        Read error                           : 0
        Jitter error (maybe fixed)           : 0
        Retry sector count                   : 0
        Damaged sector count                 : 0

Track 07
    Filename : /Users/Shared/XLD Rips/Jimmy Rosenberg - Django's Tiger (2003) [CD - FLAC - 16]/07 Jimmy Rosenberg - Django's Tiger.flac
    Pre-gap length : 00:01:60

    Track gain               : -1.97 dB
    Peak                     : 0.987152
    CRC32 hash (test run)    : 445E3009
    CRC32 hash               : 445E3009
    CRC32 hash (skip zero)   : B0650BF3
    AccurateRip v1 signature : AE3F8EDB
    AccurateRip v2 signature : 39AF696E
        ->Accurately ripped (v2, confidence 2/2)
    Statistics
        Read error                           : 0
        Jitter error (maybe fixed)           : 0
        Retry sector count                   : 0
        Damaged sector count                 : 0

Track 08
    Filename : /Users/Shared/XLD Rips/Jimmy Rosenberg - Django's Tiger (2003) [CD - FLAC - 16]/08 Jimmy Rosenberg - Sweet Sue.flac
    Pre-gap length : 00:02:62

    Track gain               : -3.15 dB
    Peak                     : 0.987427
    CRC32 hash (test run)    : 8EE0A0CB
    CRC32 hash               : 8EE0A0CB
    CRC32 hash (skip zero)   : 1A8BC49D
    AccurateRip v1 signature : 64BD663F
    AccurateRip v2 signature : 3D800874
        ->Accurately ripped (v2, confidence 2/2)
    Statistics
        Read error                           : 0
        Jitter error (maybe fixed)           : 0
        Retry sector count                   : 0
        Damaged sector count                 : 0

Track 09
    Filename : /Users/Shared/XLD Rips/Jimmy Rosenberg - Django's Tiger (2003) [CD - FLAC - 16]/09 Jimmy Rosenberg - Love's Melody.flac
    Pre-gap length : 00:03:05

    Track gain               : 1.24 dB
    Peak                     : 0.982666
    CRC32 hash (test run)    : BC019F01
    CRC32 hash               : BC019F01
    CRC32 hash (skip zero)   : 0A12037F
    AccurateRip v1 signature : 7F712DB5
    AccurateRip v2 signature : BE085A52
        ->Accurately ripped (v2, confidence 2/2)
    Statistics
        Read error                           : 0
        Jitter error (maybe fixed)           : 0
        Retry sector count                   : 0
        Damaged sector count                 : 0

Track 10
    Filename : /Users/Shared/XLD Rips/Jimmy Rosenberg - Django's Tiger (2003) [CD - FLAC - 16]/10 Jimmy Rosenberg - Indiana.flac
    Pre-gap length : 00:02:52

    Track gain               : -2.92 dB
    Peak                     : 0.987946
    CRC32 hash (test run)    : E5BE43FB
    CRC32 hash               : E5BE43FB
    CRC32 hash (skip zero)   : 2B25E859
    AccurateRip v1 signature : 744CAEB5
    AccurateRip v2 signature : C55A826E
        ->Accurately ripped (v2, confidence 2/2)
    Statistics
        Read error                           : 0
        Jitter error (maybe fixed)           : 0
        Retry sector count                   : 0
        Damaged sector count                 : 0

Track 11
    Filename : /Users/Shared/XLD Rips/Jimmy Rosenberg - Django's Tiger (2003) [CD - FLAC - 16]/11 Jimmy Rosenberg - C'est Si Bon.flac
    Pre-gap length : 00:02:18

    Track gain               : 1.67 dB
    Peak                     : 0.987549
    CRC32 hash (test run)    : 9F04A8C8
    CRC32 hash               : 9F04A8C8
    CRC32 hash (skip zero)   : 5793759B
    AccurateRip v1 signature : F88EC519
    AccurateRip v2 signature : 4206A483
        ->Accurately ripped (v2, confidence 2/2)
    Statistics
        Read error                           : 0
        Jitter error (maybe fixed)           : 0
        Retry sector count                   : 0
        Damaged sector count                 : 0

Track 12
    Filename : /Users/Shared/XLD Rips/Jimmy Rosenberg - Django's Tiger (2003) [CD - FLAC - 16]/12 Jimmy Rosenberg - Nagasaki.flac
    Pre-gap length : 00:02:20

    Track gain               : -3.90 dB
    Peak                     : 0.987793
    CRC32 hash (test run)    : 3649DDE4
    CRC32 hash               : 3649DDE4
    CRC32 hash (skip zero)   : D526D21D
    AccurateRip v1 signature : A9CE748F
    AccurateRip v2 signature : 6D0C0290
        ->Accurately ripped (v2, confidence 2/2)
    Statistics
        Read error                           : 0
        Jitter error (maybe fixed)           : 0
        Retry sector count                   : 0
        Damaged sector count                 : 0

Track 13
    Filename : /Users/Shared/XLD Rips/Jimmy Rosenberg - Django's Tiger (2003) [CD - FLAC - 16]/13 Jimmy Rosenberg - I Love You.flac
    Pre-gap length : 00:02:55

    Track gain               : -3.13 dB
    Peak                     : 0.987396
    CRC32 hash (test run)    : 7DEC5160
    CRC32 hash               : 7DEC5160
    CRC32 hash (skip zero)   : 7CC21254
    AccurateRip v1 signature : 41B82E50
    AccurateRip v2 signature : 14F4DC33
        ->Accurately ripped (v2, confidence 2/2)
    Statistics
        Read error                           : 0
        Jitter error (maybe fixed)           : 0
        Retry sector count                   : 0
        Damaged sector count                 : 0

Track 14
    Filename : /Users/Shared/XLD Rips/Jimmy Rosenberg - Django's Tiger (2003) [CD - FLAC - 16]/14 Jimmy Rosenberg - Misty.flac
    Pre-gap length : 00:07:60

    Track gain               : -1.84 dB
    Peak                     : 0.983826
    CRC32 hash (test run)    : 6C1189D0
    CRC32 hash               : 6C1189D0
    CRC32 hash (skip zero)   : 45F65638
    AccurateRip v1 signature : A0357D1A
    AccurateRip v2 signature : DE425AD7
        ->Accurately ripped (v2, confidence 2/2)
    Statistics
        Read error                           : 0
        Jitter error (maybe fixed)           : 0
        Retry sector count                   : 0
        Damaged sector count                 : 0

No errors occurred

End of status report

-----BEGIN XLD SIGNATURE-----
B8pbHgumVqA.zD36VoD2L7ND2HfvgL1OzqhVzeOWB2gMqgO6S6Rh08xDKHA8g49ISrnrn1rdTjYplyZ0x1FRI7Fvax.ObUYYqSQzZWq
-----END XLD SIGNATURE-----
Содержание индексной карты (.CUE)
TITLE "Django's Tiger (Swinging With Hot Club De Norvège)"
PERFORMER "Jimmy Rosenberg"
REM GENRE "Jazz"
REM DATE "2003"
REM DISCID AA0BB50E
REM REPLAYGAIN_ALBUM_GAIN -1.73 dB
REM REPLAYGAIN_ALBUM_PEAK 0.987946
FILE "01 - Shine.flac" WAVE
  TRACK 01 AUDIO
    TITLE "Shine"
    PERFORMER "Jimmy Rosenberg"
    ISRC NOFHH0346010
    REM REPLAYGAIN_TRACK_GAIN -2.05 dB
    REM REPLAYGAIN_TRACK_PEAK 0.987610
    INDEX 01 00:00:00
  TRACK 02 AUDIO
    TITLE "Candy"
    PERFORMER "Jimmy Rosenberg"
    ISRC NOFHH0346020
    REM REPLAYGAIN_TRACK_GAIN -0.02 dB
    REM REPLAYGAIN_TRACK_PEAK 0.986664
    INDEX 00 02:49:62
FILE "02 - Candy.flac" WAVE
    INDEX 01 00:00:00
  TRACK 03 AUDIO
    TITLE "Swanee River"
    PERFORMER "Jimmy Rosenberg"
    ISRC NOFHH0346030
    REM REPLAYGAIN_TRACK_GAIN -2.97 dB
    REM REPLAYGAIN_TRACK_PEAK 0.987457
    INDEX 00 03:45:45
FILE "03 - Swanee River.flac" WAVE
    INDEX 01 00:00:00
  TRACK 04 AUDIO
    TITLE "I'll See You In My Dreams"
    PERFORMER "Jimmy Rosenberg"
    ISRC NOFHH0346040
    REM REPLAYGAIN_TRACK_GAIN -1.00 dB
    REM REPLAYGAIN_TRACK_PEAK 0.984680
    INDEX 00 03:24:53
FILE "04 - I'll See You In My Dreams.flac" WAVE
    INDEX 01 00:00:00
  TRACK 05 AUDIO
    TITLE "Seul Ce Soir"
    PERFORMER "Jimmy Rosenberg"
    ISRC NOFHH0346050
    REM REPLAYGAIN_TRACK_GAIN -2.18 dB
    REM REPLAYGAIN_TRACK_PEAK 0.987701
    INDEX 00 03:24:17
FILE "05 - Seul Ce Soir.flac" WAVE
    INDEX 01 00:00:00
  TRACK 06 AUDIO
    TITLE "Malibu"
    PERFORMER "Jimmy Rosenberg"
    ISRC NOFHH0346060
    REM REPLAYGAIN_TRACK_GAIN -0.94 dB
    REM REPLAYGAIN_TRACK_PEAK 0.987640
    INDEX 00 05:04:55
FILE "06 - Malibu.flac" WAVE
    INDEX 01 00:00:00
  TRACK 07 AUDIO
    TITLE "Django's Tiger"
    PERFORMER "Jimmy Rosenberg"
    ISRC NOFHH0346070
    REM REPLAYGAIN_TRACK_GAIN -1.97 dB
    REM REPLAYGAIN_TRACK_PEAK 0.987152
    INDEX 00 03:02:25
FILE "07 - Django's Tiger.flac" WAVE
    INDEX 01 00:00:00
  TRACK 08 AUDIO
    TITLE "Sweet Sue"
    PERFORMER "Jimmy Rosenberg"
    ISRC NOFHH0346080
    REM REPLAYGAIN_TRACK_GAIN -3.15 dB
    REM REPLAYGAIN_TRACK_PEAK 0.987427
    INDEX 00 03:45:38
FILE "08 - Sweet Sue.flac" WAVE
    INDEX 01 00:00:00
  TRACK 09 AUDIO
    TITLE "Love's Melody"
    PERFORMER "Jimmy Rosenberg"
    ISRC NOFHH0346090
    REM REPLAYGAIN_TRACK_GAIN 1.24 dB
    REM REPLAYGAIN_TRACK_PEAK 0.982666
    INDEX 00 02:32:63
FILE "09 - Love's Melody.flac" WAVE
    INDEX 01 00:00:00
  TRACK 10 AUDIO
    TITLE "Indiana"
    PERFORMER "Jimmy Rosenberg"
    ISRC NOFHH0346100
    REM REPLAYGAIN_TRACK_GAIN -2.92 dB
    REM REPLAYGAIN_TRACK_PEAK 0.987946
    INDEX 00 04:05:35
FILE "10 - Indiana.flac" WAVE
    INDEX 01 00:00:00
  TRACK 11 AUDIO
    TITLE "C'est Si Bon"
    PERFORMER "Jimmy Rosenberg"
    ISRC NOFHH0346110
    REM REPLAYGAIN_TRACK_GAIN 1.67 dB
    REM REPLAYGAIN_TRACK_PEAK 0.987549
    INDEX 00 03:00:25
FILE "11 - C'est Si Bon.flac" WAVE
    INDEX 01 00:00:00
  TRACK 12 AUDIO
    TITLE "Nagasaki"
    PERFORMER "Jimmy Rosenberg"
    ISRC NOFHH0346120
    REM REPLAYGAIN_TRACK_GAIN -3.90 dB
    REM REPLAYGAIN_TRACK_PEAK 0.987793
    INDEX 00 05:12:25
FILE "12 - Nagasaki.flac" WAVE
    INDEX 01 00:00:00
  TRACK 13 AUDIO
    TITLE "I Love You"
    PERFORMER "Jimmy Rosenberg"
    ISRC NOFHH0346130
    REM REPLAYGAIN_TRACK_GAIN -3.13 dB
    REM REPLAYGAIN_TRACK_PEAK 0.987396
    INDEX 00 01:49:40
FILE "13 - I Love You.flac" WAVE
    INDEX 01 00:00:00
  TRACK 14 AUDIO
    TITLE "Misty"
    PERFORMER "Jimmy Rosenberg"
    ISRC NOFHH0346140
    REM REPLAYGAIN_TRACK_GAIN -1.84 dB
    REM REPLAYGAIN_TRACK_PEAK 0.983826
    INDEX 00 02:54:72
FILE "14 - Misty.flac" WAVE
    INDEX 01 00:00:00
Приватный:
Нет (DHT включён)
Размер:
248.92 Мб (261,009,910 байт) » файлов: 17
Участники:
0 раздают, 0 качают (0 участников всего)
Внешние участники:
7 раздают, 2 качают (9 участников всего) [ Обновить ]
No seeders - write personal message to M0p94ok. Нет сидеров - пишите в личку M0p94ok.
14:56
98
Нет комментариев. Ваш будет первым!