Поиск

2003 Hiromi - Another Mind (2018) {Telarc 63558} [24-192]

2003 Hiromi - Another Mind (2018) {Telarc 63558} [24-192]
Стили:
Издатель (лейбл):
Треклист:

Формат записи/Источник записи: [TR24][OF]
Наличие водяных знаков: Нет
Год издания/переиздания диска: 2003/2018
Продолжительность: 70:29
Наличие сканов в содержимом раздачи: Только обложка альбома
Контейнер: FLAC (*.flac)
Тип рипа: tracks
Разрядность: 24/192
Формат: PCM
Количество каналов: 2.0
Источник: hdtracks.com

Треклист:
01. XYZ (5:37)
02. Double Personality (11:57)
03. Summer Rain (6:08)
04. Joy (8:30)
05. 010101 (Binary System) (8:26)
06. Truth And Lies (7:19)
07. Dancando No Paraiso (7:39)
08. Another Mind (8:50)
09. The Tom And Jerry Show (6:04)

 
Лог проверки качества
foobar2000 1.3.9 / Dynamic Range Meter 1.1.1
log date: 2018-06-09 01:26:35
--------------------------------------------------------------------------------
Analyzed: Hiromi / Another Mind
--------------------------------------------------------------------------------
DR         Peak         RMS     Duration Track
--------------------------------------------------------------------------------
DR15      -0.40 dB   -17.73 dB      5:37 01-XYZ
DR14      -0.22 dB   -17.48 dB     11:57 02-Double Personality
DR14      -0.22 dB   -17.03 dB      6:08 03-Summer Rain
DR16      -0.40 dB   -20.48 dB      8:30 04-Joy
DR16      -0.50 dB   -18.99 dB      8:26 05-010101 (Binary System)
DR16      -0.92 dB   -19.83 dB      7:19 06-Truth And Lies
DR14      -0.32 dB   -17.07 dB      7:39 07-Dancando No Paraiso
DR13      -0.38 dB   -17.13 dB      8:50 08-Another Mind
DR14      -1.17 dB   -20.32 dB      6:04 09-The Tom And Jerry Show
--------------------------------------------------------------------------------
Number of tracks:  9
Official DR value: DR15
Samplerate:        192000 Hz
Channels:          2
Bits per sample:   24
Bitrate:           4193 kbps
Codec:             FLAC
================================================================================

 

Состав:
  • Hiromi Uehara - piano
  • Mitch Cohn - bass
  • Dave DiCenso - drums
  • Guests:
  • Anthony Jackson - bass
  • Jim Odgren - alto saxophone
  • Dave Fiuczynski - guitar

Recorded in Avatar Studio C, New York City, September 16-18, 2002.
Produced by Richard Evans, Ahmad Jamal.

Download available for power users only.
22:18
671
Нет комментариев. Ваш будет первым!