Поиск

2003 Esbjorn Svensson Trio - Seven Days Of Falling

2003 Esbjorn Svensson Trio - Seven Days Of Falling
Страна-производитель диска (релиза):
Germany
Дата записи диска:
март-апрель 2003
Дата издания диска:
22 сентября 2003
Номер по каталогу:
ACT90122
Носитель:
CD
Битрейт аудио:
lossless
Аудиокодек:
APE (*.ape)
Тип рипа:
image+.cue
Время звучания:
01:02:00
Наличие сканов:
  • да
Релизёр (источник):
______
Состав:
  • Daniel Berglund Bass
  • Magnus Öström Drums
  • Esbjörn Svensson Piano
  • Janne Hansson Recording Engineer
01. Ballad for the Unborn 5:32
02. Seven Days of Falling 6:26
03. Mingle in the Mincing-Machine 6:52
04. Evening in Atlantis 0:50
05. Did They Ever Tell Cousteau? 6:05
06. Believe, Beleft, Below 4:51
07. Elevation of Love 6:43
08. In My Garage 4:18
09. Why She Couldn't Come 6:30
10. O.D.R.I.P. 14:24
Лог создания рипа
Exact Audio Copy V0.99 prebeta 3 from 28. July 2007
EAC extraction logfile from 14. September 2007, 21:37
E.S.T. / Seven Days Of Falling
Used drive : HL-DT-STDVDRRW GWA-4083B Adapter: 1 ID: 0
Read mode : Secure
Utilize accurate stream : Yes
Defeat audio cache : Yes
Make use of C2 pointers : No
Read offset correction : 102
Overread into Lead-In and Lead-Out : No
Fill up missing offset samples with silence : Yes
Delete leading and trailing silent blocks : No
Null samples used in CRC calculations : Yes
Used interface : Native Win32 interface for Win NT & 2000
Used output format : Internal WAV Routines
Sample format : 44.100 Hz; 16 Bit; Stereo
TOC of the extracted CD
Track | Start | Length | Start sector | End sector
---------------------------------------------------------
1 | 0:00.00 | 5:32.02 | 0 | 24901
2 | 5:32.02 | 6:26.45 | 24902 | 53896
3 | 11:58.47 | 6:52.65 | 53897 | 84861
4 | 18:51.37 | 0:50.70 | 84862 | 88681
5 | 19:42.32 | 6:05.13 | 88682 | 116069
6 | 25:47.45 | 4:51.17 | 116070 | 137911
7 | 30:38.62 | 6:43.50 | 137912 | 168186
8 | 37:22.37 | 4:18.48 | 168187 | 187584
9 | 41:41.10 | 6:30.15 | 187585 | 216849
10 | 48:11.25 | 14:25.07 | 216850 | 281731
Range status and errors
Selected range
Filename C:\E.S.T. - Seven Days Of Falling.wav
Peak level 97.1 %
Range quality 100.0 %
Test CRC 36BECD6D
Copy CRC 36BECD6D
Copy OK
No errors occurred
AccurateRip summary
Track 1 accurately ripped (confidence 4) [714EC751]
Track 2 accurately ripped (confidence 4) [63701F60]
Track 3 accurately ripped (confidence 4) [3FA7C634]
Track 4 accurately ripped (confidence 4) [9B106E68]
Track 5 accurately ripped (confidence 4) [E3A1BF9A]
Track 6 accurately ripped (confidence 4) [409973FA]
Track 7 accurately ripped (confidence 4) [49C1CE05]
Track 8 accurately ripped (confidence 4) [44C573C3]
Track 9 accurately ripped (confidence 4) [791ECDB1]
Track 10 accurately ripped (confidence 4) [AFCC4503]
All tracks accurately ripped
End of status report
Приватный:
Нет (DHT включён)
Размер:
346.36 Мб (363,185,652 байт) » файлов: 11
Участники:
2 раздают, 1 качают (3 участников всего)
Внешние участники:
3 раздают, 1 качают (4 участников всего) [ Обновить ]
Скорость:
196.71 Кб/c 0/c
01:25
143
RSS
Нет комментариев. Ваш будет первым!