Поиск

2003 Ernie Andrews - Jump for Joy {HighNote} [CD]

2003 Ernie Andrews - Jump for Joy {HighNote} [CD]
Стили:
Дата записи диска:
3 сентября 2002
Место записи:
The Studio, New York City, NY, USA
Дата издания диска:
16 мая 2003
Издатель (лейбл):
Номер по каталогу:
HCD 7103

Треклист:

01. If You Never Fall in Love with Me (Jones-Wolf) - 6:36
02. Danger Zone (Mayfield) - 5:31
03. Sweet Lorraine (Burwell-Parish) - 5:07
04. You Are Too Beautiful (Hart-Rodgers) - 7:04
05. Jump for Joy (Ellington-Kuller) - 3:33
06. Close Your Eyes (Petkere) - 5:12
07. If I Were You, Baby, I'd Fall in Love with Me (Rogers) - 6:05
08. Almost in Your Arms (Evans-Livingston) - 3:58
09. Solitude (Ellington-DeLange-Mills) - 8:47

Состав:
  • Ernie Andrews — vocals
  • Houston Person — tenor saxophone
  • Aaron Graves — piano
  • John Webber — bass
  • Alvin Atkinson — drums
Доп. инфо:

Носитель: CD
Страна-производитель диска (релиза): США
Год издания: 2003
Аудиокодек: FLAC (*.flac)
Тип рипа: tracks+.cue
Продолжительность: 00:51:53
Источник: Cacophony
Наличие сканов в содержимом раздачи: нет

Лог создания рипа
Exact Audio Copy V1.3 from 2. September 2016

EAC extraction logfile from 27. May 2019, 12:00

Ernie Andrews / Jump For Joy

Used drive  : hp      DVD-RAM GH40L   Adapter: 1  ID: 0

Read mode               : Secure
Utilize accurate stream : Yes
Defeat audio cache      : Yes
Make use of C2 pointers : No

Read offset correction                      : 667
Overread into Lead-In and Lead-Out          : No
Fill up missing offset samples with silence : Yes
Delete leading and trailing silent blocks   : No
Null samples used in CRC calculations       : Yes
Used interface                              : Native Win32 interface for Win NT & 2000
Gap handling                                : Appended to previous track

Used output format              : User Defined Encoder
Selected bitrate                : 768 kBit/s
Quality                         : High
Add ID3 tag                     : No
Command line compressor         : C:\Program Files (x86)\Exact Audio Copy\FLAC\FLAC.EXE
Additional command line options : -8 -V -T "ARTIST=%artist%" -T "TITLE=%title%" -T "ALBUM=%albumtitle%" -T "DATE=%year%" -T "TRACKNUMBER=%tracknr%" -T "GENRE=%genre%" -T "PERFORMER=%albuminterpret%" -T "COMPOSER=%composer%" %haslyrics%--tag-from-file=LYRICS="%lyricsfile%"%haslyrics% -T "ALBUMARTIST=%albumartist%" -T "DISCNUMBER=%cdnumber%" -T "TOTALDISCS=%totalcds%" -T "TOTALTRACKS=%numtracks%" -T "COMMENT=%comment%" %source% -o %dest%

TOC of the extracted CD

     Track |   Start  |  Length  | Start sector | End sector
    ---------------------------------------------------------
        1  |  0:00.00 |  6:35.54 |         0    |    29678
        2  |  6:35.54 |  5:31.19 |     29679    |    54522
        3  | 12:06.73 |  5:07.29 |     54523    |    77576
        4  | 17:14.27 |  7:03.63 |     77577    |   109364
        5  | 24:18.15 |  3:32.47 |    109365    |   125311
        6  | 27:50.62 |  5:11.66 |    125312    |   148702
        7  | 33:02.53 |  6:04.40 |    148703    |   176042
        8  | 39:07.18 |  3:57.73 |    176043    |   193890
        9  | 43:05.16 |  8:46.64 |    193891    |   233404

Track  1

     Filename C:\Users\Public\Seeds\Ernie Andrews - Jump For Joy (2003) FLAC\01 - If You Never Fall In Love With Me.wav

     Pre-gap length  0:00:02.00

     Peak level 97.7 %
     Extraction speed 1.8 X
     Track quality 99.9 %
     Test CRC 9D4FE7BB
     Copy CRC 9D4FE7BB
     Accurately ripped (confidence 2)  [CBF1F3EC]  (AR v2)
     Copy OK

Track  2

     Filename C:\Users\Public\Seeds\Ernie Andrews - Jump For Joy (2003) FLAC\02 - Danger Zone.wav

     Pre-gap length  0:00:02.54

     Peak level 88.5 %
     Extraction speed 2.2 X
     Track quality 100.0 %
     Test CRC 5EE042A0
     Copy CRC 5EE042A0
     Accurately ripped (confidence 2)  [4A26E4F7]  (AR v2)
     Copy OK

Track  3

     Filename C:\Users\Public\Seeds\Ernie Andrews - Jump For Joy (2003) FLAC\03 - Sweet Lorraine.wav

     Pre-gap length  0:00:01.49

     Peak level 89.4 %
     Extraction speed 2.2 X
     Track quality 99.9 %
     Test CRC F7883BE9
     Copy CRC F7883BE9
     Accurately ripped (confidence 2)  [E625C50B]  (AR v2)
     Copy OK

Track  4

     Filename C:\Users\Public\Seeds\Ernie Andrews - Jump For Joy (2003) FLAC\04 - You Are Too Beautiful.wav

     Pre-gap length  0:00:02.20

     Peak level 98.8 %
     Extraction speed 2.8 X
     Track quality 100.0 %
     Test CRC 718F9E6C
     Copy CRC 718F9E6C
     Accurately ripped (confidence 2)  [94C028B2]  (AR v2)
     Copy OK

Track  5

     Filename C:\Users\Public\Seeds\Ernie Andrews - Jump For Joy (2003) FLAC\05 - Jump For Joy.wav

     Pre-gap length  0:00:02.36

     Peak level 86.9 %
     Extraction speed 2.8 X
     Track quality 100.0 %
     Test CRC 2F1DFE27
     Copy CRC 2F1DFE27
     Accurately ripped (confidence 2)  [15BAFD42]  (AR v2)
     Copy OK

Track  6

     Filename C:\Users\Public\Seeds\Ernie Andrews - Jump For Joy (2003) FLAC\06 - Close Your Eyes.wav

     Pre-gap length  0:00:02.52

     Peak level 98.5 %
     Extraction speed 3.1 X
     Track quality 100.0 %
     Test CRC 2C8D5610
     Copy CRC 2C8D5610
     Accurately ripped (confidence 2)  [1EABB061]  (AR v2)
     Copy OK

Track  7

     Filename C:\Users\Public\Seeds\Ernie Andrews - Jump For Joy (2003) FLAC\07 - If I Were You, Baby, I'd Fall In Love With Me.wav

     Pre-gap length  0:00:03.76

     Peak level 99.9 %
     Extraction speed 3.0 X
     Track quality 99.9 %
     Test CRC CA54B0E2
     Copy CRC CA54B0E2
     Accurately ripped (confidence 2)  [B72C3676]  (AR v2)
     Copy OK

Track  8

     Filename C:\Users\Public\Seeds\Ernie Andrews - Jump For Joy (2003) FLAC\08 - Almost In Your Arms.wav

     Pre-gap length  0:00:02.42

     Peak level 99.9 %
     Extraction speed 3.2 X
     Track quality 100.0 %
     Test CRC 47AA206E
     Copy CRC 47AA206E
     Accurately ripped (confidence 2)  [2A879FE7]  (AR v2)
     Copy OK

Track  9

     Filename C:\Users\Public\Seeds\Ernie Andrews - Jump For Joy (2003) FLAC\09 - Solitude.wav

     Pre-gap length  0:00:01.48

     Peak level 98.9 %
     Extraction speed 3.8 X
     Track quality 100.0 %
     Test CRC 916A3A68
     Copy CRC 916A3A68
     Accurately ripped (confidence 2)  [8A4A9C2D]  (AR v2)
     Copy OK

All tracks accurately ripped

No errors occurred

End of status report

---- CUETools DB Plugin V2.1.6

[CTDB TOCID: oq9pEfqen6sa0hS_TLePbqTLSnU-] disk not present in database
Submit result: oq9pEfqen6sa0hS_TLePbqTLSnU- has been uploaded

==== Log checksum CD84039287232EC96A1440003C59D38F386C90E8A5F6DA1D5754988EBA2A532F ====
Содержание индексной карты (.CUE)
REM GENRE Jazz
REM DATE 2003
REM DISCID 890C2809
REM COMMENT "ExactAudioCopy v1.3"
CATALOG 0632375710323
PERFORMER "Ernie Andrews"
TITLE "Jump for Joy"
FILE "01 - If You Never Fall in Love with Me.wav" WAVE
  TRACK 01 AUDIO
    TITLE "If You Never Fall in Love with Me"
    PERFORMER "Ernie Andrews"
    ISRC USHNR0310301
    INDEX 01 00:00:00
  TRACK 02 AUDIO
    TITLE "Danger Zone"
    PERFORMER "Ernie Andrews"
    ISRC USHNR0310302
    INDEX 00 06:33:13
FILE "02 - Danger Zone.wav" WAVE
    INDEX 01 00:00:00
  TRACK 03 AUDIO
    TITLE "Sweet Lorraine"
    PERFORMER "Ernie Andrews"
    ISRC USHNR0310303
    INDEX 00 05:29:57
FILE "03 - Sweet Lorraine.wav" WAVE
    INDEX 01 00:00:00
  TRACK 04 AUDIO
    TITLE "You Are Too Beautiful"
    PERFORMER "Ernie Andrews"
    ISRC USHNR0310304
    INDEX 00 05:05:14
FILE "04 - You Are Too Beautiful.wav" WAVE
    INDEX 01 00:00:00
  TRACK 05 AUDIO
    TITLE "Jump for Joy"
    PERFORMER "Ernie Andrews"
    ISRC USHNR0310305
    INDEX 00 07:01:36
FILE "05 - Jump for Joy.wav" WAVE
    INDEX 01 00:00:00
  TRACK 06 AUDIO
    TITLE "Close Your Eyes"
    PERFORMER "Ernie Andrews"
    ISRC USHNR0310306
    INDEX 00 03:30:08
FILE "06 - Close Your Eyes.wav" WAVE
    INDEX 01 00:00:00
  TRACK 07 AUDIO
    TITLE "If I Were You, Baby, I'd Fall in Love with Me"
    PERFORMER "Ernie Andrews"
    ISRC USHNR0310307
    INDEX 00 05:08:09
FILE "07 - If I Were You, Baby, I'd Fall in Love with Me.wav" WAVE
    INDEX 01 00:00:00
  TRACK 08 AUDIO
    TITLE "Almost in Your Arms"
    PERFORMER "Ernie Andrews"
    ISRC USHNR0310308
    INDEX 00 06:02:08
FILE "08 - Almost in Your Arms.wav" WAVE
    INDEX 01 00:00:00
  TRACK 09 AUDIO
    TITLE "Solitude"
    PERFORMER "Ernie Andrews"
    ISRC USHNR0310309
    INDEX 00 03:56:37
FILE "09 - Solitude.wav" WAVE
    INDEX 01 00:00:00
Лог проверки качества
[CUETools log; Date: 12.09.2019 15:21:59; Version: 2.1.6]
[CTDB TOCID: oq9pEfqen6sa0hS_TLePbqTLSnU-] found.
Track | CTDB Status
  1   | (1/1) Accurately ripped
  2   | (1/1) Accurately ripped
  3   | (1/1) Accurately ripped
  4   | (1/1) Accurately ripped
  5   | (1/1) Accurately ripped
  6   | (1/1) Accurately ripped
  7   | (1/1) Accurately ripped
  8   | (1/1) Accurately ripped
  9   | (1/1) Accurately ripped
[AccurateRip ID: 00118652-007f914b-890c2809] found.
Track   [  CRC   |   V2   ] Status
 01     [61e41b41|cbf1f3ec] (0+2/4) Accurately ripped
 02     [1e661f25|4a26e4f7] (0+2/4) Accurately ripped
 03     [78860f0a|e625c50b] (0+2/4) Accurately ripped
 04     [65cfa9ef|94c028b2] (0+2/4) Accurately ripped
 05     [a790e33f|15bafd42] (0+2/4) Accurately ripped
 06     [51ea8730|1eabb061] (0+2/4) Accurately ripped
 07     [da659360|b72c3676] (0+2/4) Accurately ripped
 08     [e87e5101|2a879fe7] (0+2/4) Accurately ripped
 09     [83dfd10a|8a4a9c2d] (0+2/4) Accurately ripped
Offsetted by -664:
 01     [8e72d4d1] (2/4) Accurately ripped
 02     [e8f41575] (2/4) Accurately ripped
 03     [acc3381a] (2/4) Accurately ripped
 04     [ee19fedf] (2/4) Accurately ripped
 05     [e439fb57] (2/4) Accurately ripped
 06     [4adf0d48] (2/4) Accurately ripped
 07     [f4c1c3a0] (2/4) Accurately ripped
 08     [1886ff81] (2/4) Accurately ripped
 09     [d97aa9e2] (2/4) Accurately ripped

Track Peak [ CRC32  ] [W/O NULL] [  LOG   ]
 --   99,9 [ADFDE27E] [8A3722C0]
 01   97,7 [9D4FE7BB] [7F0D1230]   CRC32
 02   88,5 [5EE042A0] [A3D5A199]   CRC32
 03   89,4 [F7883BE9] [B9493BD8]   CRC32
 04   98,8 [718F9E6C] [F790A33A]   CRC32
 05   86,9 [2F1DFE27] [98644141]   CRC32
 06   98,5 [2C8D5610] [4E7C499F]   CRC32
 07   99,9 [CA54B0E2] [71528095]   CRC32
 08   99,9 [47AA206E] [B7CF82C9]   CRC32
 09   98,9 [916A3A68] [C3618E14]   CRC32
По всем вопросам пишите личное сообщение пользователю M0p94ok.
17:00
286
Нет комментариев. Ваш будет первым!