Поиск

2003 Christoph Titz - Titz Magic {Parashoot} [DST64 ISO]

2003 Christoph Titz - Titz Magic {Parashoot} [DST64 ISO]
Стили:
Носитель:
SACD
Формат:
DST
Тип рипа:
image
Контейнер:
ISO (*.iso)
Количество каналов:
2.0
Разрядность/ЧД:
64 (2,8 MHz/1 Bit)
Битрейт аудио:
lossless
Время звучания:
01:07:49
Наличие сканов:
только обложка

Треклист:

01. Magic     4:20
02. Finally Alone    5:09
03. Dancing On My Clouds     4:12
04. Naa Hey Na     4:31
05. Suchen     3:18
06. Pearls For My Flat    4:36
07. Mon    6:05
08. Neil Conti    6:35
09. Slow Mood    4:21
10. Peter´s Walk     3:42
11. Rich And Famous     4:14
12. Opera    6:30
13. Rotation    4:07
14. Litho     5:55

Состав:
  •     Acoustic Bass – Christian Von Kaphengst (tracks: 2, 5, 7, 10)
  •     Acoustic Guitar – Philip Niessen (tracks: 2, 5, 10, 13)
  •     Bata [Batars] – Jens Kerkhoff (tracks: 7), Roland Peil (tracks: 3)
  •     Cello – Astrid Nägele* (tracks: 5, 6)
  •     Congas – Jens Kerkhoff (tracks: 3, 8, 10, 12)
  •     Drum Programming – Alex Jacobi (tracks: 3), Christoph Titz (tracks: 4, 6, 10 to 12)
  •     Drums – Danny Schröteler* (tracks: 1, 3 to 13)
  •     Electric Bass [Fender Bass] – Christian Von Kaphengst (tracks: 1, 3, 4, 6, 8, 9, 12 to 14)
  •     Electric Guitar – Philip Niessen (tracks: 1, 3, 6, 8, 9, 11, 12)
  •     Electric Organ [Hammond Organ] – Gero Körner (tracks: 8, 10 to 12)
  •     Electric Piano [Fender Rhodes] – Gero Körner (tracks: 2, 3, 6 to 8, 12)
  •     Flugelhorn – Christoph Titz (tracks: 2)
  •     Guitar [Space Guitar] – Philip Niessen (tracks: 4, 6)
  •     Handclaps ["Roland Handsonic"] – Roland Peil (tracks: 4)
  •     Keyboards – Gero Körner (tracks: 14)
  •     Keyboards [Keys] – Alex Jacobi (tracks: 13), Christoph Titz (tracks: 1, 3 to 8, 11 to 13), Gero Körner (tracks: 1, 3, 4, 8, 12)
  •     Mastered By [SACD] – Simon Heyworth
  •     Mastered By [Stereo] – Michael Schwabe
  •     Mixed By [SACD, Assistant] – Lawrence Hume
  •     Mixed By [SACD] – Gerald Neumann
  •     Mixed By [Stereo] – Alex Jacobi
  •     Percussion – Alfonso Garrido (tracks: 1, 5, 7), Jens Kerkhoff (tracks: 2), Roland Peil (tracks: 1, 2, 8, 9, 12 to 14)
  •     Producer [Produced By] – Alex Jacobi, Christoph Titz
  •     Programmed By [Programming] – Alex Jacobi (tracks: 6, 13), Christoph Titz (tracks: 3)
  •     Recorded By [Drums] – Stefan Lindlahr
  •     Recorded By [Guitars] – Philipp Kullmann* (tracks: 13)
  •     Synthesizer [Virus Access Indigo 2] – Christian Von Kaphengst (tracks: 6, 11)
  •     Timbales – Jens Kerkhoff (tracks: 3), Roland Peil (tracks: 12)
  •     Trumpet – Christoph Titz (tracks: 1, 3 to 14)
  •     Violin – Nina Leonards (tracks: 6)
  •     Written-By – Andy Armer (tracks: 13), Christoph Titz (tracks: 1 to 12, 14), Randy Badazz (tracks: 13)
Лог проверки качества
foobar2000 1.3.9 / Dynamic Range Meter 1.1.1
log date: 2016-03-13 16:34:23
--------------------------------------------------------------------------------
Analyzed: TITZ / Magic
--------------------------------------------------------------------------------
DR         Peak         RMS     Duration Track
--------------------------------------------------------------------------------
DR11      -4.07 dB   -20.20 dB      4:24 01-MAGIC
DR12      -4.65 dB   -21.65 dB      5:10 02-FINALY ALONE
DR11      -4.47 dB   -21.87 dB      4:12 03-DANCING ON MY CLOUDS
DR8       -5.73 dB   -20.24 dB      4:34 04-NAA ... HEY ... NA
DR11      -4.34 dB   -21.96 dB      3:20 05-SUCHEN
DR8       -5.51 dB   -19.53 dB      4:39 06-PEARLS ON MY FLAT
DR9       -4.77 dB   -21.11 dB      6:08 07-MON
DR9       -4.10 dB   -18.96 dB      6:35 08-NEIL CONTI
DR10      -4.85 dB   -20.55 dB      4:22 09-SLOW MOOD
DR9       -5.15 dB   -19.26 dB      3:37 10-PETER'S WALK
DR9       -4.09 dB   -18.95 dB      4:13 11-RICH AND FAMOUS
DR9       -4.98 dB   -18.86 dB      6:32 12-OPERA
DR9       -6.29 dB   -21.10 dB      4:04 13-ROTATION
DR9       -5.42 dB   -22.04 dB      5:57 14-LITHO
--------------------------------------------------------------------------------
Number of tracks:  14
Official DR value: DR10
Samplerate:        88200 Hz
Channels:          6
Bits per sample:   24
Bitrate:           16934 kbps
Codec:             DST64
================================================================================
--------------------------------------------------------------------------------
Analyzed: TITZ / Magic
--------------------------------------------------------------------------------
DR         Peak         RMS     Duration Track
--------------------------------------------------------------------------------
DR9       -5.11 dB   -15.92 dB      4:22 01-MAGIC
DR9       -3.97 dB   -16.59 dB      5:10 02-FINALY ALONE
DR9       -4.73 dB   -15.75 dB      4:13 03-DANCING ON MY CLOUDS
DR9       -5.17 dB   -16.23 dB      4:33 04-NAA ... HEY ... NA
DR10      -4.76 dB   -16.56 dB      3:19 05-SUCHEN
DR8       -5.31 dB   -16.19 dB      4:38 06-PEARLS ON MY FLAT
DR9       -5.39 dB   -16.30 dB      6:06 07-MON
DR7       -4.82 dB   -13.84 dB      6:35 08-NEIL CONTI
DR10      -4.95 dB   -17.73 dB      4:24 09-SLOW MOOD
DR9       -4.45 dB   -15.00 dB      3:43 10-PETER'S WALK
DR10      -5.03 dB   -17.73 dB      4:15 11-RICH AND FAMOUS
DR9       -4.75 dB   -15.93 dB      6:28 12-OPERA
DR9       -4.80 dB   -15.39 dB      4:07 13-ROTATION
DR7       -5.85 dB   -15.23 dB      5:57 14-LITHO
--------------------------------------------------------------------------------
Number of tracks:  14
Official DR value: DR9
Samplerate:        88200 Hz
Channels:          2
Bits per sample:   24
Bitrate:           5645 kbps
Codec:             DST64
================================================================================
12:57
351
Нет комментариев. Ваш будет первым!