Поиск

2003 Babatunde Lea - Soul Pools {Motema Music 7-09363-7136-2} [CD]

2003 Babatunde Lea - Soul Pools {Motema Music 7-09363-7136-2} [CD]
Место записи:
Showplace Studios, Dover, NJ, USA
Издатель (лейбл):
Битрейт аудио:
lossless
Треклист:

01. Confrontation (3:37)
02. Jackie and the Beanstalk (5:56)
03. Isabella (5:02)
04. Round the World (4:29)
05. Whoa Baba! (4:45)
06. 1055 (4:54)
07. Ejercito Moreno (4:43)
08. Yerba Buena (4:23)
09. Outlyer (4:37)
10. Soul Pools (5:02)
11. Carolyn's Dance (4:39)

Состав:
  • Babatunde Lea — drums, percussion
  • Ku-umba Frank Lacy — trombone, trumpet, flugelhorn, vocals
  • Hilton Ruiz — piano
  • John Benitez — bass
  • Mario Rivera — soprano saxophone, tenor saxophone, flute
  • Kevin Jones — percussion
  • with guest artists:
  • Jana Herzen — vocals
  • Raul Midon — guitar, voice trumpet, background vocals
Доп. инфо:

Носитель: CD
Страна-производитель диска (релиза): США
Год издания: 2003
Издатель (лейбл): Motema Music
Номер по каталогу: 7-09363-7136-2
Аудиокодек: FLAC (*.flac)
Тип рипа: tracks+.cue
Битрейт аудио: lossless
Продолжительность: 00:52:07
Источник: What.CD
Наличие сканов в содержимом раздачи: нет

Лог создания рипа
X Lossless Decoder version 20110611 (135.0)
XLD extraction logfile from 2011-06-11 15:26:13 -0700
Babatunde Lea / Soul Pools
Used drive : MATSHITA DVD-R   UJ-868 (revision KB19)
Ripper mode             : XLD Secure Ripper
Disable audio cache     : OK for the drive with a cache less than 1375KiB
Make use of C2 pointers : NO
Read offset correction  : 102
Max retry count         : 100
Gap status              : Analyzed, Appended
TOC of the extracted CD
     Track |   Start  |  Length  | Start sector | End sector
    ---------------------------------------------------------
        1  | 00:00:00 | 03:37:17 |         0    |    16291
        2  | 03:37:17 | 05:55:46 |     16292    |    42962
        3  | 09:32:63 | 05:01:71 |     42963    |    65608
        4  | 14:34:59 | 04:28:58 |     65609    |    85766
        5  | 19:03:42 | 04:44:70 |     85767    |   107136
        6  | 23:48:37 | 04:54:10 |    107137    |   129196
        7  | 28:42:47 | 04:43:23 |    129197    |   150444
        8  | 33:25:70 | 04:23:12 |    150445    |   170181
        9  | 37:49:07 | 04:36:65 |    170182    |   190946
       10  | 42:25:72 | 05:02:35 |    190947    |   213631
       11  | 47:28:32 | 04:39:00 |    213632    |   234556
AccurateRip Summary
    Disc not found in AccurateRip DB.
All Tracks
    Album gain             : -6.54 dB
    Peak                   : 0.994476
    Statistics
        Read error                           : 0
        Jitter error (maybe fixed)           : 0
        Retry sector count                   : 0
        Damaged sector count                 : 0
Track 01
    Filename : /Users/bensterola/Documents/Torrents/Rips/Babatunde Lea - Soul Pools 2002 [FLAC]/01 Confrontation.flac
    Pre-gap length : 00:02:00
    Track gain             : -6.31 dB
    Peak                   : 0.994446
    CRC32 hash (test run)  : 74915729
    CRC32 hash             : 74915729
    CRC32 hash (skip zero) : AAA1B405
    AccurateRip signature  : 4757B59D
        ->Track not present in AccurateRip database.
    Statistics
        Read error                           : 0
        Jitter error (maybe fixed)           : 0
        Retry sector count                   : 0
        Damaged sector count                 : 0
Track 02
    Filename : /Users/bensterola/Documents/Torrents/Rips/Babatunde Lea - Soul Pools 2002 [FLAC]/02 Jackie and the Beanstalk.flac
    Track gain             : -6.34 dB
    Peak                   : 0.994476
    CRC32 hash (test run)  : EA7E51BE
    CRC32 hash             : EA7E51BE
    CRC32 hash (skip zero) : 525A4198
    AccurateRip signature  : 6677F3D4
        ->Track not present in AccurateRip database.
    Statistics
        Read error                           : 0
        Jitter error (maybe fixed)           : 0
        Retry sector count                   : 0
        Damaged sector count                 : 0
Track 03
    Filename : /Users/bensterola/Documents/Torrents/Rips/Babatunde Lea - Soul Pools 2002 [FLAC]/03 Isabella.flac
    Track gain             : -6.81 dB
    Peak                   : 0.994476
    CRC32 hash (test run)  : F8E42232
    CRC32 hash             : F8E42232
    CRC32 hash (skip zero) : D9BB40D1
    AccurateRip signature  : 2EB64382
        ->Track not present in AccurateRip database.
    Statistics
        Read error                           : 0
        Jitter error (maybe fixed)           : 0
        Retry sector count                   : 0
        Damaged sector count                 : 0
Track 04
    Filename : /Users/bensterola/Documents/Torrents/Rips/Babatunde Lea - Soul Pools 2002 [FLAC]/04 Round the World.flac
    Track gain             : -7.02 dB
    Peak                   : 0.994476
    CRC32 hash (test run)  : 73B375B8
    CRC32 hash             : 73B375B8
    CRC32 hash (skip zero) : 67457243
    AccurateRip signature  : 5B48AE22
        ->Track not present in AccurateRip database.
    Statistics
        Read error                           : 0
        Jitter error (maybe fixed)           : 0
        Retry sector count                   : 0
        Damaged sector count                 : 0
Track 05
    Filename : /Users/bensterola/Documents/Torrents/Rips/Babatunde Lea - Soul Pools 2002 [FLAC]/05 Whoa Baba!.flac
    Track gain             : -4.74 dB
    Peak                   : 0.994476
    CRC32 hash (test run)  : 44F01BC2
    CRC32 hash             : 44F01BC2
    CRC32 hash (skip zero) : C158C91B
    AccurateRip signature  : F2A3A8BA
        ->Track not present in AccurateRip database.
    Statistics
        Read error                           : 0
        Jitter error (maybe fixed)           : 0
        Retry sector count                   : 0
        Damaged sector count                 : 0
Track 06
    Filename : /Users/bensterola/Documents/Torrents/Rips/Babatunde Lea - Soul Pools 2002 [FLAC]/06 1055.flac
    Track gain             : -7.64 dB
    Peak                   : 0.994476
    CRC32 hash (test run)  : 35081699
    CRC32 hash             : 35081699
    CRC32 hash (skip zero) : 6FE197A1
    AccurateRip signature  : 9F1868E1
        ->Track not present in AccurateRip database.
    Statistics
        Read error                           : 0
        Jitter error (maybe fixed)           : 0
        Retry sector count                   : 0
        Damaged sector count                 : 0
Track 07
    Filename : /Users/bensterola/Documents/Torrents/Rips/Babatunde Lea - Soul Pools 2002 [FLAC]/07 Erjecto Moreno.flac
    Track gain             : -4.59 dB
    Peak                   : 0.994476
    CRC32 hash (test run)  : 08B5312E
    CRC32 hash             : 08B5312E
    CRC32 hash (skip zero) : 41359D54
    AccurateRip signature  : 01A114CC
        ->Track not present in AccurateRip database.
    Statistics
        Read error                           : 0
        Jitter error (maybe fixed)           : 0
        Retry sector count                   : 0
        Damaged sector count                 : 0
Track 08
    Filename : /Users/bensterola/Documents/Torrents/Rips/Babatunde Lea - Soul Pools 2002 [FLAC]/08 Yerba Buena.flac
    Track gain             : -6.24 dB
    Peak                   : 0.994476
    CRC32 hash (test run)  : F51EC5C8
    CRC32 hash             : F51EC5C8
    CRC32 hash (skip zero) : EBAE07A2
    AccurateRip signature  : C30D53F7
        ->Track not present in AccurateRip database.
    Statistics
        Read error                           : 0
        Jitter error (maybe fixed)           : 0
        Retry sector count                   : 0
        Damaged sector count                 : 0
Track 09
    Filename : /Users/bensterola/Documents/Torrents/Rips/Babatunde Lea - Soul Pools 2002 [FLAC]/09 Outlyer.flac
    Track gain             : -6.46 dB
    Peak                   : 0.994476
    CRC32 hash (test run)  : D9E951BA
    CRC32 hash             : D9E951BA
    CRC32 hash (skip zero) : 7EDDDB29
    AccurateRip signature  : 4CEA1832
        ->Track not present in AccurateRip database.
    Statistics
        Read error                           : 0
        Jitter error (maybe fixed)           : 0
        Retry sector count                   : 0
        Damaged sector count                 : 0
Track 10
    Filename : /Users/bensterola/Documents/Torrents/Rips/Babatunde Lea - Soul Pools 2002 [FLAC]/10 Soul Pools.flac
    Track gain             : -5.13 dB
    Peak                   : 0.994446
    CRC32 hash (test run)  : A661EC24
    CRC32 hash             : A661EC24
    CRC32 hash (skip zero) : A1D76E86
    AccurateRip signature  : 44F01234
        ->Track not present in AccurateRip database.
    Statistics
        Read error                           : 0
        Jitter error (maybe fixed)           : 0
        Retry sector count                   : 0
        Damaged sector count                 : 0
Track 11
    Filename : /Users/bensterola/Documents/Torrents/Rips/Babatunde Lea - Soul Pools 2002 [FLAC]/11 Carolyn's Dance.flac
    Track gain             : -7.36 dB
    Peak                   : 0.994476
    CRC32 hash (test run)  : 8357193B
    CRC32 hash             : 8357193B
    CRC32 hash (skip zero) : 2BECE039
    AccurateRip signature  : 0748E29B
        ->Track not present in AccurateRip database.
    Statistics
        Read error                           : 0
        Jitter error (maybe fixed)           : 0
        Retry sector count                   : 0
        Damaged sector count                 : 0
No errors occurred
End of status report
Содержание индексной карты (.CUE)
TITLE "Soul Pools"
PERFORMER "Babatunde Lea"
REM GENRE "Jazz"
REM DATE "2002"
REM DISCID 8A0C370B
REM REPLAYGAIN_ALBUM_GAIN -6.54 dB
REM REPLAYGAIN_ALBUM_PEAK 0.994476
FILE "01 - Confrontation.flac" WAVE
  TRACK 01 AUDIO
    TITLE "Confrontation"
    REM REPLAYGAIN_TRACK_GAIN -6.31 dB
    REM REPLAYGAIN_TRACK_PEAK 0.994446
    INDEX 01 00:00:00
FILE "02 - Jackie and the Beanstalk.flac" WAVE
  TRACK 02 AUDIO
    TITLE "Jackie and the Beanstalk"
    REM REPLAYGAIN_TRACK_GAIN -6.34 dB
    REM REPLAYGAIN_TRACK_PEAK 0.994476
    INDEX 01 00:00:00
FILE "03 - Isabella.flac" WAVE
  TRACK 03 AUDIO
    TITLE "Isabella"
    REM REPLAYGAIN_TRACK_GAIN -6.81 dB
    REM REPLAYGAIN_TRACK_PEAK 0.994476
    INDEX 01 00:00:00
FILE "04 - Round the World.flac" WAVE
  TRACK 04 AUDIO
    TITLE "Round the World"
    REM REPLAYGAIN_TRACK_GAIN -7.02 dB
    REM REPLAYGAIN_TRACK_PEAK 0.994476
    INDEX 01 00:00:00
FILE "05 - Whoa Baba!.flac" WAVE
  TRACK 05 AUDIO
    TITLE "Whoa Baba!"
    REM REPLAYGAIN_TRACK_GAIN -4.74 dB
    REM REPLAYGAIN_TRACK_PEAK 0.994476
    INDEX 01 00:00:00
FILE "06 - 1055.flac" WAVE
  TRACK 06 AUDIO
    TITLE "1055"
    REM REPLAYGAIN_TRACK_GAIN -7.64 dB
    REM REPLAYGAIN_TRACK_PEAK 0.994476
    INDEX 01 00:00:00
FILE "07 - Ejercito Moreno.flac" WAVE
  TRACK 07 AUDIO
    TITLE "Ejercito Moreno"
    REM REPLAYGAIN_TRACK_GAIN -4.59 dB
    REM REPLAYGAIN_TRACK_PEAK 0.994476
    INDEX 01 00:00:00
FILE "08 - Yerba Buena.flac" WAVE
  TRACK 08 AUDIO
    TITLE "Yerba Buena"
    REM REPLAYGAIN_TRACK_GAIN -6.24 dB
    REM REPLAYGAIN_TRACK_PEAK 0.994476
    INDEX 01 00:00:00
FILE "09 - Outlyer.flac" WAVE
  TRACK 09 AUDIO
    TITLE "Outlyer"
    REM REPLAYGAIN_TRACK_GAIN -6.46 dB
    REM REPLAYGAIN_TRACK_PEAK 0.994476
    INDEX 01 00:00:00
FILE "10 - Soul Pools.flac" WAVE
  TRACK 10 AUDIO
    TITLE "Soul Pools"
    REM REPLAYGAIN_TRACK_GAIN -5.13 dB
    REM REPLAYGAIN_TRACK_PEAK 0.994446
    INDEX 01 00:00:00
FILE "11 - Carolyn's Dance.flac" WAVE
  TRACK 11 AUDIO
    TITLE "Carolyn's Dance"
    REM REPLAYGAIN_TRACK_GAIN -7.36 dB
    REM REPLAYGAIN_TRACK_PEAK 0.994476
    INDEX 01 00:00:00
09:58
426
Нет комментариев. Ваш будет первым!