Поиск

2003 Active Ingredients - Titration {Delmark} [CD]

2003 Active Ingredients - Titration {Delmark} [CD]
Стили:

Треклист:

01 Song For Dyani
02 Velocity
03 Slate
04 Visual Industries
05 Modern Mythology
06 Absence
07 Titration
08 Dependent Origination
09 Other Peoples' Problems

Любителям Делмарка этот проект в особой рекомендации не нуждается, а остальные просто могут ознакомиться с ещё одним сияющим составом чикагской школы.
Активных ингредиентов здесь хоть отбавляй, но лидер состава и композитор Чад Тэйлор - просто ураган, ну и старина Мундок, конечно!

Состав:
  • Chad Taylor (drums)
  • Jemeel Moondoc (alto sax)
  • Tom Abbs (bass, hi-hat)
  • Steve Swell (trombone)
  • Rob Mazurek (cornet)
  • David Boykin (tenor sax)
  • Avreeayl Ra (percussion)

Год выпуска диска: 2003
Производитель диска: USA (Delmark)
Аудио кодек: FLAC
Тип рипа: image+.cue
Битрейт аудио: lossless
Продолжительность: 1:05:33

Лог создания рипа
Exact Audio Copy V0.99 prebeta 3 from 28. July 2007
EAC extraction logfile from 26. January 2009, 23:54
Active Ingredients / Titration
Used drive : HL-DT-STDVDRAM GSA-4165B Adapter: 1 ID: 0
Read mode : Secure
Utilize accurate stream : Yes
Defeat audio cache : Yes
Make use of C2 pointers : No
Read offset correction : 667
Overread into Lead-In and Lead-Out : No
Fill up missing offset samples with silence : Yes
Delete leading and trailing silent blocks : No
Null samples used in CRC calculations : No
Used interface : Native Win32 interface for Win NT & 2000
Used output format : User Defined Encoder
Selected bitrate : 768 kBit/s
Quality : High
Add ID3 tag : No
Command line compressor : C:\Program Files\Exact Audio Copy\FLAC\FLAC.EXE
Additional command line options : -6 -V -T "ARTIST=%a" -T "TITLE=%t" -T "ALBUM=%g" -T "DATE=%y" -T "TRACKNUMBER=%n" -T "GENRE=%m" -T "COMMENT=%e" %s -o %d
TOC of the extracted CD
Track | Start | Length | Start sector | End sector
---------------------------------------------------------
1 | 0:00.00 | 7:43.68 | 0 | 34792
2 | 7:43.68 | 5:39.11 | 34793 | 60228
3 | 13:23.04 | 4:24.08 | 60229 | 80036
4 | 17:47.12 | 8:16.74 | 80037 | 117310
5 | 26:04.11 | 7:45.15 | 117311 | 152200
6 | 33:49.26 | 3:42.47 | 152201 | 168897
7 | 37:31.73 | 9:15.46 | 168898 | 210568
8 | 46:47.44 | 4:53.47 | 210569 | 232590
9 | 51:41.16 | 13:51.70 | 232591 | 294985
Range status and errors
Selected range
Filename F:\DATA\Music\Torrent\0_My_Music\Titration - Active Ingredients (2003)\Active Ingredients - Titration.wav
Peak level 98.8 %
Range quality 100.0 %
Copy CRC 033990FE
Copy OK
No errors occurred
AccurateRip summary
Track 1 not present in database
Track 2 not present in database
Track 3 not present in database
Track 4 not present in database
Track 5 not present in database
Track 6 not present in database
Track 7 not present in database
Track 8 not present in database
Track 9 not present in database
None of the tracks are present in the AccurateRip database
End of status report
Download available for power users only.
06:42
433
Нет комментариев. Ваш будет первым!