Поиск

2002 VA - X-mas Music {Music Marketeers Muma 77201} [CD]

2002 VA - X-mas Music {Music Marketeers Muma 77201} [CD]
Треклист:

01. H.Simeone, H.Onorati, K.Davis - Little Drummer Boy (Indian Flavoured Chill Out Remix) (5:01)
02. Sagamoto - Merry Christmas Mr. Lawrence (Japanese Dream Remix) (5:42)
03. I. Berlin - (I'm Dreaming Of A) White Christmas (African Remix With Nigerian Native Vocals Remix) (5:06)
04. H. Martin, R.Blane - Have Yourself A Merry Little Christmas (Jazz-Dance / Breakbeat, New York Style Remix) (2:59)
05. Torme, Wells - The Christmas Song (Chestnuts Roasting) (Hip-Hop With Jamaican Raggamuffin Elements Remix) (4:28)
06. Smith, Bernard - Winter Wonderland (Smooth Jazz Remix) (2:55)
07. C.Rea - Driving Home For Christmas (Latin/Spanish/Flamenco House Remix) (4:08)

Жанр: Downtempo, Acid Jazz
Носитель: CD
Год издания: 2002
Издатель (лейбл): The Music Marketeers
Номер по каталогу: Muma 77201
Аудиокодек: FLAC (*.flac)
Тип рипа: tracks+.cue
Битрейт аудио: lossless
Продолжительность: 30:20
Источник: собственный рип
Наличие сканов в содержимом раздачи: да

Лог создания рипа
Exact Audio Copy V1.3 from 2. September 2016

EAC extraction logfile from 12. January 2019, 15:31

Various / X-mas Music

Used drive  : ASUS    DRW-24B5ST   Adapter: 6  ID: 0

Read mode               : Secure
Utilize accurate stream : Yes
Defeat audio cache      : Yes
Make use of C2 pointers : No

Read offset correction                      : 6
Overread into Lead-In and Lead-Out          : No
Fill up missing offset samples with silence : Yes
Delete leading and trailing silent blocks   : No
Null samples used in CRC calculations       : Yes
Used interface                              : Installed external ASPI interface
Gap handling                                : Appended to previous track

Used output format              : User Defined Encoder
Selected bitrate                : 128 kBit/s
Quality                         : High
Add ID3 tag                     : No
Command line compressor         : D:\flac-1.3.2-win\win64\flac.exe
Additional command line options : -8 -V -T "ARTIST=%artist%" -T "TITLE=%title%" -T "ALBUM=%albumtitle%" -T "DATE=%year%" -T "TRACKNUMBER=%tracknr%" -T "GENRE=%genre%" -T "COMMENT=ripped by Andy aka yetiisyou" %source%

TOC of the extracted CD

     Track |   Start  |  Length  | Start sector | End sector
    ---------------------------------------------------------
        1  |  0:00.00 |  5:01.31 |         0    |    22605
        2  |  5:01.31 |  5:42.35 |     22606    |    48290
        3  | 10:43.66 |  5:06.37 |     48291    |    71277
        4  | 15:50.28 |  2:58.45 |     71278    |    84672
        5  | 18:48.73 |  4:28.01 |     84673    |   104773
        6  | 23:16.74 |  2:55.19 |    104774    |   117917
        7  | 26:12.18 |  4:07.62 |    117918    |   136504

Track  1

     Filename E:\!Ripped by Andy aka yetiisyou\VA - X-mas Music [Muma 77201] [2002]\01. H.Simeone, H.Onorati, K.Davis - Little Drummer Boy (Indian Flavoured Chill Out Remix).wav

     Pre-gap length  0:00:02.00

     Peak level 76.7 %
     Extraction speed 1.5 X
     Track quality 99.9 %
     Test CRC 778C179F
     Copy CRC 778C179F
     Track not present in AccurateRip database
     Copy OK

Track  2

     Filename E:\!Ripped by Andy aka yetiisyou\VA - X-mas Music [Muma 77201] [2002]\02. Sagamoto - Merry Christmas Mr. Lawrence (Japanese Dream Remix).wav

     Pre-gap length  0:00:02.00

     Peak level 97.7 %
     Extraction speed 2.2 X
     Track quality 100.0 %
     Test CRC DDF3104E
     Copy CRC DDF3104E
     Track not present in AccurateRip database
     Copy OK

Track  3

     Filename E:\!Ripped by Andy aka yetiisyou\VA - X-mas Music [Muma 77201] [2002]\03. I. Berlin - (I'm Dreaming Of A) White Christmas (African Remix With Nigerian Native Vocals Remix).wav

     Pre-gap length  0:00:02.00

     Peak level 97.7 %
     Extraction speed 2.4 X
     Track quality 100.0 %
     Test CRC 308FDF9A
     Copy CRC 308FDF9A
     Track not present in AccurateRip database
     Copy OK

Track  4

     Filename E:\!Ripped by Andy aka yetiisyou\VA - X-mas Music [Muma 77201] [2002]\04. H. Martin, R.Blane - Have Yourself A Merry Little Christmas (Jazz-Dance , Breakbeat, New York Style Remix).wav

     Pre-gap length  0:00:02.00

     Peak level 93.3 %
     Extraction speed 1.6 X
     Track quality 99.9 %
     Test CRC 562A6F27
     Copy CRC 562A6F27
     Track not present in AccurateRip database
     Copy OK

Track  5

     Filename E:\!Ripped by Andy aka yetiisyou\VA - X-mas Music [Muma 77201] [2002]\05. Torme, Wells - The Christmas Song (Chestnuts Roasting) (Hip-Hop With Jamaican Raggamuffin Elements Remix).wav

     Pre-gap length  0:00:02.00

     Peak level 97.7 %
     Extraction speed 2.7 X
     Track quality 100.0 %
     Test CRC 0FBF178D
     Copy CRC 0FBF178D
     Track not present in AccurateRip database
     Copy OK

Track  6

     Filename E:\!Ripped by Andy aka yetiisyou\VA - X-mas Music [Muma 77201] [2002]\06. Smith, Bernard - Winter Wonderland (Smooth Jazz Remix).wav

     Pre-gap length  0:00:02.00

     Peak level 97.7 %
     Extraction speed 1.8 X
     Track quality 99.9 %
     Test CRC 2211A203
     Copy CRC 2211A203
     Track not present in AccurateRip database
     Copy OK

Track  7

     Filename E:\!Ripped by Andy aka yetiisyou\VA - X-mas Music [Muma 77201] [2002]\07. C.Rea - Driving Home For Christmas (Latin,Spanish,Flamenco House Remix).wav

     Pre-gap length  0:00:02.00

     Peak level 92.2 %
     Extraction speed 2.9 X
     Track quality 100.0 %
     Test CRC EB0FE0E5
     Copy CRC EB0FE0E5
     Track not present in AccurateRip database
     Copy OK

None of the tracks are present in the AccurateRip database

No errors occurred

End of status report

---- CUETools DB Plugin V2.1.6

[CTDB TOCID: hhYQOEFZs5bX6arsUOHmES7EuNE-] disk not present in database
Submit result: hhYQOEFZs5bX6arsUOHmES7EuNE- has been uploaded

==== Log checksum B44BEE6B6AD62AEC221C5BAB2710D3CCED007D88579399A433A8262F5A26994D ====
Содержание индексной карты (.CUE)
REM DATE 2002
REM DISCID 52071C07
REM COMMENT "ExactAudioCopy v1.3"
PERFORMER "Various"
TITLE "X-mas Music"
REM COMPOSER ""
FILE "01. H.Simeone, H.Onorati, K.Davis - Little Drummer Boy (Indian Flavoured Chill Out Remix).wav" WAVE
  TRACK 01 AUDIO
    TITLE "Little Drummer Boy (Indian Flavoured Chill Out Remix)"
    PERFORMER "H.Simeone, H.Onorati, K.Davis"
    REM COMPOSER ""
    INDEX 01 00:00:00
  TRACK 02 AUDIO
    TITLE "Merry Christmas Mr. Lawrence (Japanese Dream Remix)"
    PERFORMER "Sagamoto"
    REM COMPOSER ""
    INDEX 00 04:59:31
FILE "02. Sagamoto - Merry Christmas Mr. Lawrence (Japanese Dream Remix).wav" WAVE
    INDEX 01 00:00:00
  TRACK 03 AUDIO
    TITLE "(I'm Dreaming Of A) White Christmas (African Remix With Nigerian Native Vocal..."
    PERFORMER "I. Berlin"
    REM COMPOSER ""
    INDEX 00 05:40:35
FILE "03. I. Berlin - (I'm Dreaming Of A) White Christmas (African Remix With Nigerian Native Vocals Remix).wav" WAVE
    INDEX 01 00:00:00
  TRACK 04 AUDIO
    TITLE "Have Yourself A Merry Little Christmas (Jazz-Dance / Breakbeat, New York Styl..."
    PERFORMER "H. Martin, R.Blane"
    REM COMPOSER ""
    INDEX 00 05:04:37
FILE "04. H. Martin, R.Blane - Have Yourself A Merry Little Christmas (Jazz-Dance , Breakbeat, New York Style Remix).wav" WAVE
    INDEX 01 00:00:00
  TRACK 05 AUDIO
    TITLE "The Christmas Song (Chestnuts Roasting) (Hip-Hop With Jamaican Raggamuffin El..."
    PERFORMER "Torme, Wells"
    REM COMPOSER ""
    INDEX 00 02:56:45
FILE "05. Torme, Wells - The Christmas Song (Chestnuts Roasting) (Hip-Hop With Jamaican Raggamuffin Elements Remix).wav" WAVE
    INDEX 01 00:00:00
  TRACK 06 AUDIO
    TITLE "Winter Wonderland (Smooth Jazz Remix)"
    PERFORMER "Smith, Bernard"
    REM COMPOSER ""
    INDEX 00 04:26:01
FILE "06. Smith, Bernard - Winter Wonderland (Smooth Jazz Remix).wav" WAVE
    INDEX 01 00:00:00
  TRACK 07 AUDIO
    TITLE "Driving Home For Christmas (Latin/Spanish/Flamenco House Remix)"
    PERFORMER "C.Rea"
    REM COMPOSER ""
    INDEX 00 02:53:19
FILE "07. C.Rea - Driving Home For Christmas (Latin,Spanish,Flamenco House Remix).wav" WAVE
    INDEX 01 00:00:00
По всем вопросам пишите личное сообщение пользователю M0p94ok.
22:03
311
Нет комментариев. Ваш будет первым!