Поиск

2002 VA - More Smooth Jazz On A Summer's Day {Sony 5082202} [2CD]

2002 VA - More Smooth Jazz On A Summer's Day {Sony 5082202} [2CD]
Стили:
Дата издания диска:
2002
Издатель (лейбл):
Номер по каталогу:
5082202
Носитель:
CD
Тип рипа:
tracks+.cue
Аудиокодек:
FLAC (*.flac)
Битрейт аудио:
lossless
Наличие сканов:
только обложка
Страна-производитель диска (релиза):
USA
Релизёр (источник):
anonymous
Треклист:

CD1
01.  Peter White - Turn It Out
02.  Chris Botti - Streets Ahead
03.  Billy Cobham - Shadow
04.  Martin Taylor - That's The Way Of The World
05.  Buckshot LeFonque - Another Day (Remix)
06.  Luther Vandross - Never Too Much
07.  Grover Washington Jr. - Can You Stop The Rain
08.  Yoshiro Nakamura - Maria
09.  Ramsey Lewis - Wade In The Water
10.  Steve Tyrell - It Had To Be You
11.  The Isley Brothers - Summer Breeze
12.  Kirk Whalum - Glow
13.  Stanley Clarke - East River Drive
14.  Tom Scott - Spindrift
15.  Gato Barbieri - Mystica

CD2
01.  Grover Washington Jr. - Strawberry Moon
02.  Peter White - Fantasy
03.  Dan Siegel - What Gives
04.  Sly & The Family Stone - Everyday People
05.  Clementine - Les Voyages
06.  Herbie Hancock - You Bet Your Love
07.  Eric Gale - Sara Smile
08.  Tower Of Power - Diggin' On James Brown
09.  Lonnie Liston Smith - Mystical Dreamer
10.  Richard Bona - Parle Moi de Toi
11.  George Benson - My Latin Brother
12.  Marta Mus - Do It Again
13.  Martin Taylor - Nitelife
14.  M Sasaji & L.A. Allstars - Green Flower Street
15.  Chris Botti - Union

Лог создания рипа
CD1
Exact Audio Copy V1.3 from 2. September 2016

EAC extraction logfile from 15. July 2017, 21:13

Various / More Smooth Jazz On A Summer's Day (CD1)

Used drive  : ASUS    BW-12B1ST   Adapter: 1  ID: 0

Read mode               : Secure
Utilize accurate stream : Yes
Defeat audio cache      : Yes
Make use of C2 pointers : No

Read offset correction                      : 6
Overread into Lead-In and Lead-Out          : No
Fill up missing offset samples with silence : Yes
Delete leading and trailing silent blocks   : No
Null samples used in CRC calculations       : Yes
Used interface                              : Native Win32 interface for Win NT & 2000
Gap handling                                : Appended to previous track

Used output format              : User Defined Encoder
Selected bitrate                : 768 kBit/s
Quality                         : High
Add ID3 tag                     : No
Command line compressor         : C:\Program Files (x86)\Exact Audio Copy\FLAC\FLAC.EXE
Additional command line options : -8 -V -T "ARTIST=%artist%" -T "TITLE=%title%" -T "ALBUM=%albumtitle%" -T "DATE=%year%" -T "TRACKNUMBER=%tracknr%" -T "TOTALTRACKS=%numtracks%" -T "DISCNUMBER=%cdnumber%" -T "TOTALDISCS=%totalcds%" -T "PERFORMER=%albuminterpret%" -T "COMPOSER=%composer%" -T "GENRE=%genre%" -T "ALBUMARTIST=%albumartist%" -T "ALBUM ARTIST=%albumartist%" -T "COMMENT=%comment%" %source%


TOC of the extracted CD

     Track |   Start  |  Length  | Start sector | End sector 
    ---------------------------------------------------------
        1  |  0:00.00 |  5:32.49 |         0    |    24948   
        2  |  5:32.49 |  3:44.68 |     24949    |    41816   
        3  |  9:17.42 |  4:46.23 |     41817    |    63289   
        4  | 14:03.65 |  5:41.01 |     63290    |    88865   
        5  | 19:44.66 |  3:35.10 |     88866    |   105000   
        6  | 23:20.01 |  3:53.02 |    105001    |   122477   
        7  | 27:13.03 |  4:52.25 |    122478    |   144402   
        8  | 32:05.28 |  2:11.11 |    144403    |   154238   
        9  | 34:16.39 |  2:46.67 |    154239    |   166755   
       10  | 37:03.31 |  3:24.65 |    166756    |   182120   
       11  | 40:28.21 |  6:13.66 |    182121    |   210161   
       12  | 46:42.12 |  6:12.74 |    210162    |   238135   
       13  | 52:55.11 |  7:48.50 |    238136    |   273285   
       14  | 60:43.61 |  5:43.64 |    273286    |   299074   
       15  | 66:27.50 |  5:19.54 |    299075    |   323053   


Track  1

     Filename E:\Downloads\CD Rips\More Smooth Jazz On A Summer's Day\CD1\01. Turn It Out.wav

     Pre-gap length  0:00:02.00

     Peak level 92.1 %
     Extraction speed 5.2 X
     Track quality 99.9 %
     Test CRC 43E645CD
     Copy CRC 43E645CD
     Accurately ripped (confidence 6)  [EE6B8E12]  (AR v2)
     Copy OK

Track  2

     Filename E:\Downloads\CD Rips\More Smooth Jazz On A Summer's Day\CD1\02. Streets Ahead.wav

     Pre-gap length  0:00:02.00

     Peak level 99.8 %
     Extraction speed 6.2 X
     Track quality 100.0 %
     Test CRC 33A95892
     Copy CRC 33A95892
     Accurately ripped (confidence 6)  [0535EE63]  (AR v2)
     Copy OK

Track  3

     Filename E:\Downloads\CD Rips\More Smooth Jazz On A Summer's Day\CD1\03. Shadow.wav

     Pre-gap length  0:00:02.00

     Peak level 97.7 %
     Extraction speed 6.9 X
     Track quality 100.0 %
     Test CRC A20C5CF7
     Copy CRC A20C5CF7
     Accurately ripped (confidence 6)  [9B9761A4]  (AR v2)
     Copy OK

Track  4

     Filename E:\Downloads\CD Rips\More Smooth Jazz On A Summer's Day\CD1\04. That's The Way Of The World.wav

     Pre-gap length  0:00:02.00

     Peak level 100.0 %
     Extraction speed 7.4 X
     Track quality 100.0 %
     Test CRC 892E7372
     Copy CRC 892E7372
     Accurately ripped (confidence 6)  [B21DA8C4]  (AR v2)
     Copy OK

Track  5

     Filename E:\Downloads\CD Rips\More Smooth Jazz On A Summer's Day\CD1\05. Another Day (Remix).wav

     Pre-gap length  0:00:02.00

     Peak level 100.0 %
     Extraction speed 6.4 X
     Track quality 99.9 %
     Test CRC E0C74BE3
     Copy CRC E0C74BE3
     Accurately ripped (confidence 6)  [A02D0A8C]  (AR v2)
     Copy OK

Track  6

     Filename E:\Downloads\CD Rips\More Smooth Jazz On A Summer's Day\CD1\06. Never Too Much.wav

     Pre-gap length  0:00:02.00

     Peak level 99.8 %
     Extraction speed 6.8 X
     Track quality 99.9 %
     Test CRC 069DE0F2
     Copy CRC 069DE0F2
     Accurately ripped (confidence 6)  [4907C3F6]  (AR v2)
     Copy OK

Track  7

     Filename E:\Downloads\CD Rips\More Smooth Jazz On A Summer's Day\CD1\07. Can You Stop The Rain.wav

     Pre-gap length  0:00:02.00

     Peak level 97.7 %
     Extraction speed 8.6 X
     Track quality 100.0 %
     Test CRC 949F76F5
     Copy CRC 949F76F5
     Accurately ripped (confidence 6)  [6A0B42CC]  (AR v2)
     Copy OK

Track  8

     Filename E:\Downloads\CD Rips\More Smooth Jazz On A Summer's Day\CD1\08. Maria.wav

     Pre-gap length  0:00:02.00

     Peak level 66.6 %
     Extraction speed 5.9 X
     Track quality 99.9 %
     Test CRC 8DD3D734
     Copy CRC 8DD3D734
     Accurately ripped (confidence 6)  [5F935B31]  (AR v2)
     Copy OK

Track  9

     Filename E:\Downloads\CD Rips\More Smooth Jazz On A Summer's Day\CD1\09. Wade In The Water.wav

     Pre-gap length  0:00:02.00

     Peak level 99.8 %
     Extraction speed 8.4 X
     Track quality 100.0 %
     Test CRC 516F6B78
     Copy CRC 516F6B78
     Accurately ripped (confidence 6)  [113382E3]  (AR v2)
     Copy OK

Track 10

     Filename E:\Downloads\CD Rips\More Smooth Jazz On A Summer's Day\CD1\10. It Had To Be You.wav

     Pre-gap length  0:00:01.74

     Peak level 100.0 %
     Extraction speed 7.4 X
     Track quality 99.9 %
     Test CRC 868F4AA3
     Copy CRC 868F4AA3
     Accurately ripped (confidence 6)  [950207F3]  (AR v2)
     Copy OK

Track 11

     Filename E:\Downloads\CD Rips\More Smooth Jazz On A Summer's Day\CD1\11. Summer Breeze.wav

     Pre-gap length  0:00:02.00

     Peak level 98.8 %
     Extraction speed 9.9 X
     Track quality 100.0 %
     Test CRC 8B366B09
     Copy CRC 8B366B09
     Accurately ripped (confidence 6)  [D463F8AC]  (AR v2)
     Copy OK

Track 12

     Filename E:\Downloads\CD Rips\More Smooth Jazz On A Summer's Day\CD1\12. Glow.wav

     Pre-gap length  0:00:01.74

     Peak level 89.0 %
     Extraction speed 10.4 X
     Track quality 100.0 %
     Test CRC 5F673011
     Copy CRC 5F673011
     Accurately ripped (confidence 6)  [FFD1DD94]  (AR v2)
     Copy OK

Track 13

     Filename E:\Downloads\CD Rips\More Smooth Jazz On A Summer's Day\CD1\13. East River Drive.wav

     Pre-gap length  0:00:01.74

     Peak level 100.0 %
     Extraction speed 11.1 X
     Track quality 100.0 %
     Test CRC 0788D171
     Copy CRC 0788D171
     Accurately ripped (confidence 6)  [AD8D3FB5]  (AR v2)
     Copy OK

Track 14

     Filename E:\Downloads\CD Rips\More Smooth Jazz On A Summer's Day\CD1\14. Spindrift.wav

     Pre-gap length  0:00:01.74

     Peak level 94.0 %
     Extraction speed 11.1 X
     Track quality 100.0 %
     Test CRC 7D4C1A75
     Copy CRC 7D4C1A75
     Accurately ripped (confidence 6)  [DA728186]  (AR v2)
     Copy OK

Track 15

     Filename E:\Downloads\CD Rips\More Smooth Jazz On A Summer's Day\CD1\15. Mystica.wav

     Pre-gap length  0:00:02.00

     Peak level 89.0 %
     Extraction speed 9.8 X
     Track quality 99.9 %
     Test CRC 6EC67E0F
     Copy CRC 6EC67E0F
     Accurately ripped (confidence 6)  [88DF99B1]  (AR v2)
     Copy OK


All tracks accurately ripped

No errors occurred

End of status report

---- CUETools DB Plugin V2.1.6

[CTDB TOCID: dnhwkjFiU1x_AuirapbdZlWoN8g-] found
Submit result: dnhwkjFiU1x_AuirapbdZlWoN8g- has been confirmed
Track | CTDB Status
  1   | (8/8) Accurately ripped
  2   | (7/8) Accurately ripped
  3   | (7/8) Accurately ripped
  4   | (7/8) Accurately ripped
  5   | (8/8) Accurately ripped
  6   | (8/8) Accurately ripped
  7   | (7/8) Accurately ripped
  8   | (8/8) Accurately ripped
  9   | (7/8) Accurately ripped
 10   | (7/8) Accurately ripped
 11   | (7/8) Accurately ripped
 12   | (7/8) Accurately ripped
 13   | (7/8) Accurately ripped
 14   | (7/8) Accurately ripped
 15   | (7/8) Accurately ripped


==== Log checksum 9425DC2A02C7DC9B265F969FEFB45972BE3A5F855C22962997C8BA624EA03635 ====

CD2
Exact Audio Copy V1.3 from 2. September 2016

EAC extraction logfile from 15. July 2017, 21:34

Various / More Smooth Jazz On A Summer's Day (CD2)

Used drive  : ASUS    BW-12B1ST   Adapter: 1  ID: 0

Read mode               : Secure
Utilize accurate stream : Yes
Defeat audio cache      : Yes
Make use of C2 pointers : No

Read offset correction                      : 6
Overread into Lead-In and Lead-Out          : No
Fill up missing offset samples with silence : Yes
Delete leading and trailing silent blocks   : No
Null samples used in CRC calculations       : Yes
Used interface                              : Native Win32 interface for Win NT & 2000
Gap handling                                : Appended to previous track

Used output format              : User Defined Encoder
Selected bitrate                : 768 kBit/s
Quality                         : High
Add ID3 tag                     : No
Command line compressor         : C:\Program Files (x86)\Exact Audio Copy\FLAC\FLAC.EXE
Additional command line options : -8 -V -T "ARTIST=%artist%" -T "TITLE=%title%" -T "ALBUM=%albumtitle%" -T "DATE=%year%" -T "TRACKNUMBER=%tracknr%" -T "TOTALTRACKS=%numtracks%" -T "DISCNUMBER=%cdnumber%" -T "TOTALDISCS=%totalcds%" -T "PERFORMER=%albuminterpret%" -T "COMPOSER=%composer%" -T "GENRE=%genre%" -T "ALBUMARTIST=%albumartist%" -T "ALBUM ARTIST=%albumartist%" -T "COMMENT=%comment%" %source%


TOC of the extracted CD

     Track |   Start  |  Length  | Start sector | End sector 
    ---------------------------------------------------------
        1  |  0:00.00 |  4:25.23 |         0    |    19897   
        2  |  4:25.23 |  3:59.49 |     19898    |    37871   
        3  |  8:24.72 |  3:57.07 |     37872    |    55653   
        4  | 12:22.04 |  2:21.68 |     55654    |    66296   
        5  | 14:43.72 |  3:02.68 |     66297    |    80014   
        6  | 17:46.65 |  7:38.04 |     80015    |   114368   
        7  | 25:24.69 |  6:11.36 |    114369    |   142229   
        8  | 31:36.30 |  4:40.39 |    142230    |   163268   
        9  | 36:16.69 |  5:32.53 |    163269    |   188221   
       10  | 41:49.47 |  4:32.10 |    188222    |   208631   
       11  | 46:21.57 |  6:50.18 |    208632    |   239399   
       12  | 53:12.00 |  2:56.57 |    239400    |   252656   
       13  | 56:08.57 |  5:35.71 |    252657    |   277852   
       14  | 61:44.53 |  4:12.21 |    277853    |   296773   
       15  | 65:56.74 |  2:15.03 |    296774    |   306901   


Track  1

     Filename E:\Downloads\CD Rips\More Smooth Jazz On A Summer's Day\CD2\01. Strawberry Moon.wav

     Pre-gap length  0:00:02.00

     Peak level 99.9 %
     Extraction speed 5.9 X
     Track quality 100.0 %
     Test CRC 65AA8246
     Copy CRC 65AA8246
     Cannot be verified as accurate (confidence 5)  [01C93927], AccurateRip returned [26C7FD0C]  (AR v2)
     Copy OK

Track  2

     Filename E:\Downloads\CD Rips\More Smooth Jazz On A Summer's Day\CD2\02. Fantasy.wav

     Pre-gap length  0:00:02.00

     Peak level 86.0 %
     Extraction speed 5.4 X
     Track quality 99.9 %
     Test CRC C853F22D
     Copy CRC C853F22D
     Cannot be verified as accurate (confidence 5)  [0A9855CB], AccurateRip returned [EAAD6C8E]  (AR v2)
     Copy OK

Track  3

     Filename E:\Downloads\CD Rips\More Smooth Jazz On A Summer's Day\CD2\03. What Gives.wav

     Pre-gap length  0:00:02.00

     Peak level 99.8 %
     Extraction speed 7.0 X
     Track quality 100.0 %
     Test CRC 44C0D09E
     Copy CRC 44C0D09E
     Cannot be verified as accurate (confidence 5)  [01DE8724], AccurateRip returned [8DD56837]  (AR v2)
     Copy OK

Track  4

     Filename E:\Downloads\CD Rips\More Smooth Jazz On A Summer's Day\CD2\04. Everyday People.wav

     Pre-gap length  0:00:02.00

     Peak level 92.8 %
     Extraction speed 6.6 X
     Track quality 100.0 %
     Test CRC 33E3E652
     Copy CRC 33E3E652
     Cannot be verified as accurate (confidence 5)  [74E900D6], AccurateRip returned [A5DD4257]  (AR v2)
     Copy OK

Track  5

     Filename E:\Downloads\CD Rips\More Smooth Jazz On A Summer's Day\CD2\05. Les Voyages.wav

     Pre-gap length  0:00:02.00

     Peak level 89.1 %
     Extraction speed 5.9 X
     Track quality 99.9 %
     Test CRC D3AA0F8A
     Copy CRC D3AA0F8A
     Cannot be verified as accurate (confidence 5)  [65DFD7C0], AccurateRip returned [91DA8F98]  (AR v2)
     Copy OK

Track  6

     Filename E:\Downloads\CD Rips\More Smooth Jazz On A Summer's Day\CD2\06. You Bet Your Love.wav

     Pre-gap length  0:00:01.74

     Peak level 69.1 %
     Extraction speed 8.7 X
     Track quality 100.0 %
     Test CRC 02B3EBCA
     Copy CRC 02B3EBCA
     Cannot be verified as accurate (confidence 5)  [18A8BB7B], AccurateRip returned [8237FB9D]  (AR v2)
     Copy OK

Track  7

     Filename E:\Downloads\CD Rips\More Smooth Jazz On A Summer's Day\CD2\07. Sara Smile.wav

     Pre-gap length  0:00:01.74

     Peak level 100.0 %
     Extraction speed 8.2 X
     Track quality 99.9 %
     Test CRC DE761BB5
     Copy CRC DE761BB5
     Cannot be verified as accurate (confidence 5)  [8EE85666], AccurateRip returned [77A55E96]  (AR v2)
     Copy OK

Track  8

     Filename E:\Downloads\CD Rips\More Smooth Jazz On A Summer's Day\CD2\08. Diggin' On James Brown.wav

     Pre-gap length  0:00:01.74

     Peak level 99.8 %
     Extraction speed 8.1 X
     Track quality 99.9 %
     Test CRC 94FB23EC
     Copy CRC 94FB23EC
     Cannot be verified as accurate (confidence 5)  [B97918FB], AccurateRip returned [08BEA400]  (AR v2)
     Copy OK

Track  9

     Filename E:\Downloads\CD Rips\More Smooth Jazz On A Summer's Day\CD2\09. Mystical Dreamer.wav

     Pre-gap length  0:00:01.74

     Peak level 100.0 %
     Extraction speed 10.0 X
     Track quality 100.0 %
     Test CRC 1FC19F7B
     Copy CRC 1FC19F7B
     Cannot be verified as accurate (confidence 5)  [00516604], AccurateRip returned [E137D16B]  (AR v2)
     Copy OK

Track 10

     Filename E:\Downloads\CD Rips\More Smooth Jazz On A Summer's Day\CD2\10. Parle Moi de Toi.wav

     Pre-gap length  0:00:02.00

     Peak level 99.3 %
     Extraction speed 10.1 X
     Track quality 100.0 %
     Test CRC 514ECA97
     Copy CRC 514ECA97
     Cannot be verified as accurate (confidence 5)  [5CC77927], AccurateRip returned [3BFC5A50]  (AR v2)
     Copy OK

Track 11

     Filename E:\Downloads\CD Rips\More Smooth Jazz On A Summer's Day\CD2\11. My Latin Brother.wav

     Pre-gap length  0:00:01.74

     Peak level 99.8 %
     Extraction speed 10.9 X
     Track quality 100.0 %
     Test CRC 6132B3CC
     Copy CRC 6132B3CC
     Cannot be verified as accurate (confidence 5)  [91C3E6EA], AccurateRip returned [AB3914C8]  (AR v2)
     Copy OK

Track 12

     Filename E:\Downloads\CD Rips\More Smooth Jazz On A Summer's Day\CD2\12. Do It Again.wav

     Pre-gap length  0:00:02.00

     Peak level 98.7 %
     Extraction speed 10.3 X
     Track quality 100.0 %
     Test CRC BC0BB7BC
     Copy CRC BC0BB7BC
     Cannot be verified as accurate (confidence 5)  [705966D7], AccurateRip returned [7C399CF6]  (AR v2)
     Copy OK

Track 13

     Filename E:\Downloads\CD Rips\More Smooth Jazz On A Summer's Day\CD2\13. Nitelife.wav

     Pre-gap length  0:00:01.74

     Peak level 100.0 %
     Extraction speed 10.1 X
     Track quality 99.9 %
     Test CRC 3CAB335F
     Copy CRC 3CAB335F
     Cannot be verified as accurate (confidence 5)  [0AA53CDF], AccurateRip returned [F7D217B2]  (AR v2)
     Copy OK

Track 14

     Filename E:\Downloads\CD Rips\More Smooth Jazz On A Summer's Day\CD2\14. Green Flower Street.wav

     Pre-gap length  0:00:01.74

     Peak level 95.9 %
     Extraction speed 11.4 X
     Track quality 100.0 %
     Test CRC 6016AF9A
     Copy CRC 6016AF9A
     Cannot be verified as accurate (confidence 4)  [FF618FD3], AccurateRip returned [50CAF09B]  (AR v2)
     Copy OK

Track 15

     Filename E:\Downloads\CD Rips\More Smooth Jazz On A Summer's Day\CD2\15. Union.wav

     Pre-gap length  0:00:01.74

     Peak level 99.8 %
     Extraction speed 10.2 X
     Track quality 100.0 %
     Test CRC 7B702F7B
     Copy CRC 7B702F7B
     Cannot be verified as accurate (confidence 5)  [77262B19], AccurateRip returned [448958C5]  (AR v2)
     Copy OK


No tracks could be verified as accurate
You may have a different pressing from the one(s) in the database

No errors occurred

End of status report

---- CUETools DB Plugin V2.1.6

[CTDB TOCID: E2UVJkfrctWeBGzwTTRdfKgCEiM-] found
Submit result: E2UVJkfrctWeBGzwTTRdfKgCEiM- has been confirmed
Track | CTDB Status
  1   | (8/8) Accurately ripped
  2   | (8/8) Accurately ripped
  3   | (8/8) Accurately ripped
  4   | (8/8) Accurately ripped
  5   | (8/8) Accurately ripped
  6   | (8/8) Accurately ripped
  7   | (8/8) Accurately ripped
  8   | (7/8) Accurately ripped, or (1/8) differs in 12 samples @02:01:01
  9   | (8/8) Accurately ripped
 10   | (8/8) Accurately ripped
 11   | (7/8) Accurately ripped, or (1/8) differs in 108 samples @00:59:37,01:03:47,01:05:43,01:06:59,01:10:32,01:11:67,01:16:02,01:23:43,01:29:50
 12   | (8/8) Accurately ripped
 13   | (8/8) Accurately ripped
 14   | (8/8) Accurately ripped
 15   | (8/8) Accurately ripped


==== Log checksum 7DEEDDF1F56DFCFACBAAF28EEA5AC182478876BC2D8316A0F825BE1F6EF1038C ====
Содержание индексной карты (.CUE)
CD1
REM GENRE Jazz
REM DATE 2002
REM DISCID DB10D30F
REM COMMENT "ExactAudioCopy v1.3"
PERFORMER "Various"
TITLE "More Smooth Jazz On A Summer's Day (CD1)"
REM COMPOSER ""
FILE "01. Turn It Out.wav" WAVE
  TRACK 01 AUDIO
    TITLE "Turn It Out"
    PERFORMER "Peter White"
    REM COMPOSER ""
    INDEX 01 00:00:00
  TRACK 02 AUDIO
    TITLE "Streets Ahead"
    PERFORMER "Chris Botti"
    REM COMPOSER ""
    INDEX 00 05:30:49
FILE "02. Streets Ahead.wav" WAVE
    INDEX 01 00:00:00
  TRACK 03 AUDIO
    TITLE "Shadow"
    PERFORMER "Billy Cobham"
    REM COMPOSER ""
    INDEX 00 03:42:68
FILE "03. Shadow.wav" WAVE
    INDEX 01 00:00:00
  TRACK 04 AUDIO
    TITLE "That's The Way Of The World"
    PERFORMER "Martin Taylor"
    REM COMPOSER ""
    INDEX 00 04:44:23
FILE "04. That's The Way Of The World.wav" WAVE
    INDEX 01 00:00:00
  TRACK 05 AUDIO
    TITLE "Another Day (Remix)"
    PERFORMER "Buckshot LeFonque"
    REM COMPOSER ""
    INDEX 00 05:39:01
FILE "05. Another Day (Remix).wav" WAVE
    INDEX 01 00:00:00
  TRACK 06 AUDIO
    TITLE "Never Too Much"
    PERFORMER "Luther Vandross"
    REM COMPOSER ""
    INDEX 00 03:33:10
FILE "06. Never Too Much.wav" WAVE
    INDEX 01 00:00:00
  TRACK 07 AUDIO
    TITLE "Can You Stop The Rain"
    PERFORMER "Grover Washington Jr."
    REM COMPOSER ""
    INDEX 00 03:51:02
FILE "07. Can You Stop The Rain.wav" WAVE
    INDEX 01 00:00:00
  TRACK 08 AUDIO
    TITLE "Maria"
    PERFORMER "Yoshiro Nakamura"
    REM COMPOSER ""
    INDEX 00 04:50:25
FILE "08. Maria.wav" WAVE
    INDEX 01 00:00:00
  TRACK 09 AUDIO
    TITLE "Wade In The Water"
    PERFORMER "Ramsey Lewis"
    REM COMPOSER ""
    INDEX 00 02:09:11
FILE "09. Wade In The Water.wav" WAVE
    INDEX 01 00:00:00
  TRACK 10 AUDIO
    TITLE "It Had To Be You"
    PERFORMER "Steve Tyrell"
    REM COMPOSER ""
    INDEX 00 02:44:68
FILE "10. It Had To Be You.wav" WAVE
    INDEX 01 00:00:00
  TRACK 11 AUDIO
    TITLE "Summer Breeze"
    PERFORMER "The Isley Brothers"
    REM COMPOSER ""
    INDEX 00 03:22:65
FILE "11. Summer Breeze.wav" WAVE
    INDEX 01 00:00:00
  TRACK 12 AUDIO
    TITLE "Glow"
    PERFORMER "Kirk Whalum"
    REM COMPOSER ""
    INDEX 00 06:11:67
FILE "12. Glow.wav" WAVE
    INDEX 01 00:00:00
  TRACK 13 AUDIO
    TITLE "East River Drive"
    PERFORMER "Stanley Clarke"
    REM COMPOSER ""
    INDEX 00 06:11:00
FILE "13. East River Drive.wav" WAVE
    INDEX 01 00:00:00
  TRACK 14 AUDIO
    TITLE "Spindrift"
    PERFORMER "Tom Scott"
    REM COMPOSER ""
    INDEX 00 07:46:51
FILE "14. Spindrift.wav" WAVE
    INDEX 01 00:00:00
  TRACK 15 AUDIO
    TITLE "Mystica"
    PERFORMER "Gato Barbieri"
    REM COMPOSER ""
    INDEX 00 05:41:64
FILE "15. Mystica.wav" WAVE
    INDEX 01 00:00:00

CD2
REM GENRE Other
REM DATE 2002
REM DISCID ED0FFC0F
REM COMMENT "ExactAudioCopy v1.3"
PERFORMER "Various"
TITLE "More Smooth Jazz On A Summer's Day (CD2)"
REM COMPOSER ""
FILE "01. Strawberry Moon.wav" WAVE
  TRACK 01 AUDIO
    TITLE "Strawberry Moon"
    PERFORMER "Grover Washington Jr."
    REM COMPOSER ""
    INDEX 01 00:00:00
  TRACK 02 AUDIO
    TITLE "Fantasy"
    PERFORMER "Peter White"
    REM COMPOSER ""
    INDEX 00 04:23:23
FILE "02. Fantasy.wav" WAVE
    INDEX 01 00:00:00
  TRACK 03 AUDIO
    TITLE "What Gives"
    PERFORMER "Dan Siegel"
    REM COMPOSER ""
    INDEX 00 03:57:49
FILE "03. What Gives.wav" WAVE
    INDEX 01 00:00:00
  TRACK 04 AUDIO
    TITLE "Everyday People"
    PERFORMER "Sly & The Family Stone"
    REM COMPOSER ""
    INDEX 00 03:55:07
FILE "04. Everyday People.wav" WAVE
    INDEX 01 00:00:00
  TRACK 05 AUDIO
    TITLE "Les Voyages"
    PERFORMER "Clementine"
    REM COMPOSER ""
    INDEX 00 02:19:68
FILE "05. Les Voyages.wav" WAVE
    INDEX 01 00:00:00
  TRACK 06 AUDIO
    TITLE "You Bet Your Love"
    PERFORMER "Herbie Hancock"
    REM COMPOSER ""
    INDEX 00 03:00:69
FILE "06. You Bet Your Love.wav" WAVE
    INDEX 01 00:00:00
  TRACK 07 AUDIO
    TITLE "Sara Smile"
    PERFORMER "Eric Gale"
    REM COMPOSER ""
    INDEX 00 07:36:05
FILE "07. Sara Smile.wav" WAVE
    INDEX 01 00:00:00
  TRACK 08 AUDIO
    TITLE "Diggin' On James Brown"
    PERFORMER "Tower Of Power"
    REM COMPOSER ""
    INDEX 00 06:09:37
FILE "08. Diggin' On James Brown.wav" WAVE
    INDEX 01 00:00:00
  TRACK 09 AUDIO
    TITLE "Mystical Dreamer"
    PERFORMER "Lonnie Liston Smith"
    REM COMPOSER ""
    INDEX 00 04:38:40
FILE "09. Mystical Dreamer.wav" WAVE
    INDEX 01 00:00:00
  TRACK 10 AUDIO
    TITLE "Parle Moi de Toi"
    PERFORMER "Richard Bona"
    REM COMPOSER ""
    INDEX 00 05:30:53
FILE "10. Parle Moi de Toi.wav" WAVE
    INDEX 01 00:00:00
  TRACK 11 AUDIO
    TITLE "My Latin Brother"
    PERFORMER "George Benson"
    REM COMPOSER ""
    INDEX 00 04:30:11
FILE "11. My Latin Brother.wav" WAVE
    INDEX 01 00:00:00
  TRACK 12 AUDIO
    TITLE "Do It Again"
    PERFORMER "Marta Mus"
    REM COMPOSER ""
    INDEX 00 06:48:18
FILE "12. Do It Again.wav" WAVE
    INDEX 01 00:00:00
  TRACK 13 AUDIO
    TITLE "Nitelife"
    PERFORMER "Martin Taylor"
    REM COMPOSER ""
    INDEX 00 02:54:58
FILE "13. Nitelife.wav" WAVE
    INDEX 01 00:00:00
  TRACK 14 AUDIO
    TITLE "Green Flower Street"
    PERFORMER "M Sasaji & L.A. Allstars"
    REM COMPOSER ""
    INDEX 00 05:33:72
FILE "14. Green Flower Street.wav" WAVE
    INDEX 01 00:00:00
  TRACK 15 AUDIO
    TITLE "Union"
    PERFORMER "Chris Botti"
    REM COMPOSER ""
    INDEX 00 04:10:22
FILE "15. Union.wav" WAVE
    INDEX 01 00:00:00
Приватный:
Нет (DHT включён)
Размер:
865.87 Мб (907,930,126 байт) » файлов: 39
Участники:
0 раздают, 2 качают (2 участников всего)
Внешние участники:
--- [ Обновить ]
No seeders - write a personal message to user M0p94ok. Нет сидеров - пишите личное сообщение пользователю M0p94ok.
21:03
98
Нет комментариев. Ваш будет первым!