Поиск

2002 VA - Ballads, Vol. 3 {enja} [CD]

2002 VA - Ballads, Vol. 3 {enja} [CD]
Стили:
Издатель (лейбл):
Носитель:
CD
Тип рипа:
image+.cue
Аудиокодек:
APE (*.ape)
Битрейт аудио:
lossless
Время звучания:
01:01:00
Наличие сканов:
да
Треклист:

01. Antonio Farao - I Could Have Done Much More
02. Stefanie Schlesinger - Why Shouldn't You Cry
03. Mel Martin + Benny Carter - Zanzibar
04. Melissa Walker - Twilight Song
05. Abdullah Ibrahim - Star Dance
06. Michael Gregory - Cowboys, Cartoons And Assorted Candy
07. Dusko Goykovich - In My Dreams
08. David Klein - Kiss
09. Antonio Hart - Ama Tu Sonrisa
10. Karl Ratzer - I Fall In Love Too Easily
11. Charlie Mariano - You Better Go Now

Лог создания рипа
Exact Audio Copy V0.99 prebeta 4 from 23. January 2008
Отчёт EAC об извлечении, выполненном 13. октября 2009, 14:40
Various / Ballads 3
Дисковод: PLEXTOR DVDR PX-800A Adapter: 0 ID: 0
Режим чтения : Достоверность
Использование точного потока : Да
Отключение кэша аудио : Да
Использование указателей C2 : Нет
Коррекция смещения при чтении : 48
Способность читать области Lead-in и Lead-out : Нет
Заполнение пропущенных сэмплов тишиной : Да
Удаление блоков с тишиной в начале и конце : Нет
При вычислениях CRC использовались нулевые сэмплы : Да
Интерфейс : Встроенный Win32-интерфейс для Win NT/2000
Выходной формат : Внутренние WAV-операции
Формат сэмплов : 44.100 Гц; 16 бит; стерео
TOC извлечённого CD
Трек | Старт | Длительность | Начальный сектор | Конечный сектор
---------------------------------------------------------------------
1 | 0:00.00 | 4:43.68 | 0 | 21292
2 | 4:43.68 | 5:05.14 | 21293 | 44181
3 | 9:49.07 | 6:08.18 | 44182 | 71799
4 | 15:57.25 | 4:48.50 | 71800 | 93449
5 | 20:46.00 | 5:00.56 | 93450 | 116005
6 | 25:46.56 | 2:58.53 | 116006 | 129408
7 | 28:45.34 | 7:28.49 | 129409 | 163057
8 | 36:14.08 | 7:08.27 | 163058 | 195184
9 | 43:22.35 | 6:53.31 | 195185 | 226190
10 | 50:15.66 | 4:51.20 | 226191 | 248035
11 | 55:07.11 | 6:22.43 | 248036 | 276728
Характеристики диапазона извлечения и сообщения об ошибках
Выбранный диапазон
Имя файла D:\Lossless\Ballads - Enja-4 CD\CD-2 - Ballads 3 - 2002\Various - Ballads 3.wav
Пиковый уровень 99.8 %
Качество диапазона 99.9 %
CRC копии 8C7889E5
Копирование... OK
Ошибок не произошло
Конец отчёта
13:32
405
Нет комментариев. Ваш будет первым!