Поиск

2002 Orchestre National de Jazz - Charmediterraneen {ECM 0184932}

2002 Orchestre National de Jazz - Charmediterraneen {ECM 0184932}
Страна-производитель диска (релиза):
France
Дата записи диска:
15-16 октября 2001
Дата издания диска:
25 февраля 2002
Номер по каталогу:
0184932
Носитель:
CD
Битрейт аудио:
lossless
Аудиокодек:
FLAC (*.flac)
Тип рипа:
tracks
Время звучания:
01:16:36
Наличие сканов:
  • да
Релизёр (источник):
Гость
Треклист:

01. Prologo: L'Orfeo
02. Sequenza Prima
03. Sequenza Seconda
04. Sequenza Terza
05. Sequenza Quarta
06. Epilogo
07. Estramadure-Part 1
08. Estramadure-Part 2
09. Estramadure-Part 3
10. Montbeliard Trio
11. Artefact-Part 1
12. Artefact-Part 2
13. Argentiera
14. Charmediterraneen
15. Argentiera

Состав:
  • Olivier Benoit    Guitar
  • Anouar Brahem    Composer, Oud
  • Médéric Collignon    Bugle, Cornet (Pocket), Voices
  • Paolo Damiani    Cello, Composer, Liner Notes, Musical Direction
  • Gérard De Haro    Audio Engineer
  • Didier Havet    Primary Artist
  • Regis Huby    Violone
  • François Jeanneau    Co-Director, Flute, Sax (Soprano)
  • Jean-Marc Larché    Sax (Alto), Sax (Baritone), Sax (Soprano)
  • Christophe Marguet    Drums
  • Gianluca Petrella    Trombone
  • Thomas De Pourquery    Primary Artist
  • Paul Rogers    Contrabass
  • Gianluigi Trovesi    Arranger, Composer, Piccolo Clarinet, Sax (Alto), Soloist, Transcription
  • Alain Vankenhove    Bugle, Trumpet
Лог создания рипа
EAC extraction logfile from 26. August 2005, 21:59 for CD
Orchestre National De Jazz / Charmediterraneen

Used drive : SONY DVD RW DRU-500A Adapter: 2 ID: 0
Read mode : Secure with NO C2, accurate stream, disable cache
Read offset correction : 98
Overread into Lead-In and Lead-Out : No

Used output format : Internal WAV Routines
44.100 Hz; 16 Bit; Stereo

Other options :
Fill up missing offset samples with silence : Yes
Delete leading and trailing silent blocks : No
Installed external ASPI interface

Track 1
Filename F:\Future release\A-Charmediterraneen(2002)\01-Prologo- L'Orfeo.wav

Peak level 99.8 %
Track quality 100.0 %
Test CRC 6AA07754
Copy CRC 6AA07754
Copy OK

Track 2
Filename F:\Future release\A-Charmediterraneen(2002)\02-Sequenza Prima.wav

Peak level 99.7 %
Track quality 100.0 %
Test CRC 00778E83
Copy CRC 00778E83
Copy OK

Track 3
Filename F:\Future release\A-Charmediterraneen(2002)\03-Sequenza Seconda.wav

Peak level 99.8 %
Track quality 100.0 %
Test CRC ED07C8C8
Copy CRC ED07C8C8
Copy OK

Track 4
Filename F:\Future release\A-Charmediterraneen(2002)\04-Sequenza Terza.wav

Peak level 99.8 %
Track quality 99.9 %
Test CRC FA10B389
Copy CRC FA10B389
Copy OK

Track 5
Filename F:\Future release\A-Charmediterraneen(2002)\05-Sequenza Quarta.wav

Peak level 99.5 %
Track quality 100.0 %
Test CRC E5F7BFA5
Copy CRC E5F7BFA5
Copy OK

Track 6
Filename F:\Future release\A-Charmediterraneen(2002)\06-Epilogo.wav

Peak level 99.9 %
Track quality 100.0 %
Test CRC 281FD3C2
Copy CRC 281FD3C2
Copy OK

Track 7
Filename F:\Future release\A-Charmediterraneen(2002)\07-Estramadure - Part 1.wav

Peak level 99.3 %
Track quality 100.0 %
Test CRC 8A18707A
Copy CRC 8A18707A
Copy OK

Track 8
Filename F:\Future release\A-Charmediterraneen(2002)\08-Estramadure - Part 2.wav

Peak level 98.8 %
Track quality 100.0 %
Test CRC 1D500486
Copy CRC 1D500486
Copy OK

Track 9
Filename F:\Future release\A-Charmediterraneen(2002)\09-Estramadure - Part 3.wav

Peak level 99.9 %
Track quality 100.0 %
Test CRC E17D072D
Copy CRC E17D072D
Copy OK

Track 10
Filename F:\Future release\A-Charmediterraneen(2002)\10-Montbeliard Trio.wav

Peak level 76.6 %
Track quality 99.9 %
Test CRC B725CE2D
Copy CRC B725CE2D
Copy OK

Track 11
Filename F:\Future release\A-Charmediterraneen(2002)\11-Artefact - Part 1.wav

Peak level 97.2 %
Track quality 100.0 %
Test CRC ADF1C61E
Copy CRC ADF1C61E
Copy OK

Track 12
Filename F:\Future release\A-Charmediterraneen(2002)\12-Artefact - Part 2.wav

Peak level 98.8 %
Track quality 99.9 %
Test CRC 14971C75
Copy CRC 14971C75
Copy OK

Track 13
Filename F:\Future release\A-Charmediterraneen(2002)\13-Argentierra.wav

Peak level 96.6 %
Track quality 100.0 %
Test CRC 59B6C835
Copy CRC 59B6C835
Copy OK

Track 14
Filename F:\Future release\A-Charmediterraneen(2002)\14-Charmediterraneen.wav

Peak level 98.8 %
Track quality 100.0 %
Test CRC D9DFA9AC
Copy CRC D9DFA9AC
Copy OK

Track 15
Filename F:\Future release\A-Charmediterraneen(2002)\15-Argentierra.wav

Peak level 99.9 %
Track quality 100.0 %
Test CRC E791BAB6
Copy CRC E791BAB6
Copy OK

No errors occured

End of status report
Приватный:
Нет (DHT включён)
Размер:
434.73 Мб (455,850,889 байт) » файлов: 22
Участники:
0 раздают, 0 качают (0 участников всего)
Внешние участники:
3 раздают, 1 качают (4 участников всего) [ Обновить ]
22:45
48
RSS
Нет комментариев. Ваш будет первым!