Вы используете незарегистрированную версию компонента "Вкладки"!

Поиск

2002 Nils Landgren - Sentimental Journey (2012) {ACT Music} [24-96]

2002 Nils Landgren - Sentimental Journey (2012) {ACT Music} [24-96]
Стили:
Издатель (лейбл):
Доп. инфо:

Формат записи/Источник записи: [TR24][OF]
Наличие водяных знаков: Нет
Год издания/переиздания диска: 2002/2012
Продолжительность: 59:40
Наличие сканов в содержимом раздачи: Только обложка альбома

Контейнер: FLAC (*.flac)
Тип рипа: tracks
Разрядность: 24/96
Формат: PCM
Количество каналов: 2.0

Источник: highresaudio.com

Лог проверки качества
foobar2000 1.3.9 / Dynamic Range Meter 1.1.1
log date: 2019-12-29 18:10:45

--------------------------------------------------------------------------------
Analyzed: Nils Landgren / Sentimental Journey
--------------------------------------------------------------------------------

DR         Peak         RMS     Duration Track
--------------------------------------------------------------------------------
DR11      -0.10 dB   -13.03 dB      4:34 01-Speak Low
DR10      -0.10 dB   -12.96 dB      4:47 02-Ghost In This House
DR10      -0.10 dB   -12.13 dB      4:08 03-This Masquerade
DR12      -0.10 dB   -14.99 dB      5:08 04-Nature Boy
DR10      -0.10 dB   -12.83 dB      3:15 05-Fragile
DR11      -0.10 dB   -14.77 dB      5:26 06-In A Sentimental Mood
DR11      -0.10 dB   -15.80 dB      5:23 07-The Ballad Of The Sad Young Men
DR10      -0.10 dB   -12.80 dB      4:44 08-My Foolish Heart
DR13      -0.21 dB   -16.11 dB      4:14 09-Should I Care
DR11      -0.10 dB   -13.20 dB      4:04 10-Be There For You
DR9       -0.10 dB   -11.55 dB      4:44 11-Sentimental Journey
DR8       -0.10 dB   -11.78 dB      4:43 12-Everything Must Change
DR9       -0.10 dB   -11.46 dB      4:32 13-I Will Survive
--------------------------------------------------------------------------------

Number of tracks:  13
Official DR value: DR10

Samplerate:        96000 Hz
Channels:          2
Bits per sample:   24
Bitrate:           1332 kbps
Codec:             FLAC
================================================================================
Any questions - support@pro-jazz.com. Есть вопросы - support@pro-jazz.com
13:41
238
Нет комментариев. Ваш будет первым!