Поиск

2002 Keiko Matsui - The Ring

2002 Keiko Matsui - The Ring
Треклист:
Жанр: Smooth Jazz, Piano
Год выпуска: 2002
Аудио кодек: FLAC
Тип рипа: tracks+.cue
Битрейт аудио: lossless
Источник: what.cd
Продолжительность: 49:18
Трэклист:
01. Keiko Matsui - Steps of Maya (5:46)
02. Keiko Matsui - Venus of the Sea (4:27)
03. Keiko Matsui - Moon Circle (4:52)
04. Keiko Matsui - Prism (4:57)
05. Keiko Matsui - The Next Plateau (5:21)
06. Keiko Matsui - Messenger (5:15)
07. Keiko Matsui - Deity in the Silence (4:09)
08. Keiko Matsui - The Ring (5:56)
09. Keiko Matsui - White Owl (4:46)
10. Keiko Matsui - Precious Time (3:49)
 
EAC log
EAC extraction logfile from 7. September 2008, 18:29 for CD
Keiko Matsui / The Ring
Used drive  : _NEC    DVD_RW ND-4550A   Adapter: 1  ID: 1
Read mode   : Secure with NO C2, accurate stream, disable cache
Read offset correction : 48
Overread into Lead-In and Lead-Out : No
Used output format : C:\Program Files\FLAC\flac.exe   (User Defined Encoder)
                     192 kBit/s
                     Additional command line options : -8 -V -T "ARTIST=%a" -T "TITLE=%t" -T "ALBUM=%g" -T "DATE=%y" -T "TRACKNUMBER=%n" -T "GENRE=%m" -T "COMMENT=EAC FLAC -8" %s
Other options      :
    Fill up missing offset samples with silence : Yes
    Delete leading and trailing silent blocks : No
    Installed external ASPI interface
Track  1
     Filename G:\EAC\01 - Steps of Maya.wav
     Pre-gap length  0:00:02.00
     Peak level 98.4 %
     Track quality 99.9 %
     Test CRC 98059D88
     Copy CRC 98059D88
     Copy OK
Track  2
     Filename G:\EAC\02 - Venus of the Sea.wav
     Peak level 98.4 %
     Track quality 100.0 %
     Test CRC 2FAB6A07
     Copy CRC 2FAB6A07
     Copy OK
Track  3
     Filename G:\EAC\03 - Moon Circle.wav
     Peak level 98.5 %
     Track quality 100.0 %
     Test CRC 50A04767
     Copy CRC 50A04767
     Copy OK
Track  4
     Filename G:\EAC\04 - Prism.wav
     Peak level 98.5 %
     Track quality 99.9 %
     Test CRC A6B7522B
     Copy CRC A6B7522B
     Copy OK
Track  5
     Filename G:\EAC\05 - The Next Plateau.wav
     Peak level 98.5 %
     Track quality 100.0 %
     Test CRC 43E6A88B
     Copy CRC 43E6A88B
     Copy OK
Track  6
     Filename G:\EAC\06 - Messenger.wav
     Peak level 98.5 %
     Track quality 100.0 %
     Test CRC 47AF55C5
     Copy CRC 47AF55C5
     Copy OK
Track  7
     Filename G:\EAC\07 - Deity in the Silence.wav
     Peak level 98.4 %
     Track quality 100.0 %
     Test CRC 3B647DE1
     Copy CRC 3B647DE1
     Copy OK
Track  8
     Filename G:\EAC\08 - The Ring.wav
     Peak level 98.8 %
     Track quality 100.0 %
     Test CRC BAF8BB88
     Copy CRC BAF8BB88
     Copy OK
Track  9
     Filename G:\EAC\09 - White Owl.wav
     Peak level 98.5 %
     Track quality 100.0 %
     Test CRC FD782E4E
     Copy CRC FD782E4E
     Copy OK
Track 10
     Filename G:\EAC\10 - Precious Time.wav
     Peak level 98.5 %
     Track quality 100.0 %
     Test CRC E412BE13
     Copy CRC E412BE13
     Copy OK
No errors occured
End of status report
 
 
CUE Sheet
REM GENRE Jazz
REM DATE 2002
REM DISCID 850F070B
REM COMMENT "ExactAudioCopy v0.95b4"
PERFORMER "Keiko Matsui"
TITLE "The Ring"
FILE "01 - Steps of Maya.wav" WAVE
  TRACK 01 AUDIO
    TITLE "Steps of Maya"
    PERFORMER "Keiko Matsui"
    INDEX 01 00:00:00
FILE "02 - Venus of the Sea.wav" WAVE
  TRACK 02 AUDIO
    TITLE "Venus of the Sea"
    PERFORMER "Keiko Matsui"
    INDEX 01 00:00:00
FILE "03 - Moon Circle.wav" WAVE
  TRACK 03 AUDIO
    TITLE "Moon Circle"
    PERFORMER "Keiko Matsui"
    INDEX 01 00:00:00
FILE "04 - Prism.wav" WAVE
  TRACK 04 AUDIO
    TITLE "Prism"
    PERFORMER "Keiko Matsui"
    INDEX 01 00:00:00
FILE "05 - The Next Plateau.wav" WAVE
  TRACK 05 AUDIO
    TITLE "The Next Plateau"
    PERFORMER "Keiko Matsui"
    INDEX 01 00:00:00
FILE "06 - Messenger.wav" WAVE
  TRACK 06 AUDIO
    TITLE "Messenger"
    PERFORMER "Keiko Matsui"
    INDEX 01 00:00:00
FILE "07 - Deity in the Silence.wav" WAVE
  TRACK 07 AUDIO
    TITLE "Deity in the Silence"
    PERFORMER "Keiko Matsui"
    INDEX 01 00:00:00
FILE "08 - The Ring.wav" WAVE
  TRACK 08 AUDIO
    TITLE "The Ring"
    PERFORMER "Keiko Matsui"
    INDEX 01 00:00:00
FILE "09 - White Owl.wav" WAVE
  TRACK 09 AUDIO
    TITLE "White Owl"
    PERFORMER "Keiko Matsui"
    INDEX 01 00:00:00
FILE "10 - Precious Time.wav" WAVE
  TRACK 10 AUDIO
    TITLE "Precious Time"
    PERFORMER "Keiko Matsui"
    INDEX 01 00:00:00
 
 
 
Сводка Accureterip (CUE Tools)
[CUETools log; Date: 22.04.2012 15:23:13; Version: 2.1.4]
CD-Extra data track length 12:17:50.
HDCD: peak extend: none, transient filter: none, gain: none
[CTDB TOCID: 0Dv6LKUcX9RgGTtBT1QV5.rN6oE-] found.
Track | CTDB Status
  1   | (3/4) Accurately ripped
  2   | (3/4) Accurately ripped
  3   | (3/4) Accurately ripped
  4   | (3/4) Accurately ripped
  5   | (3/4) Accurately ripped
  6   | (2/4) Accurately ripped
  7   | (3/4) Accurately ripped
  8   | (3/4) Accurately ripped
  9   | (3/4) Accurately ripped
 10   | (3/4) Accurately ripped
[AccurateRip ID: 0014105a-00a30586-850f070b] found.
Track   [  CRC   |   V2   ] Status
 01     [d6932ff3|a2dce1ed] (36+00/41) Accurately ripped
 02     [63fd5ad0|68697d95] (37+00/42) Accurately ripped
 03     [59d10367|2f0349fc] (37+00/42) Accurately ripped
 04     [0b2b4a88|6e67faae] (35+00/40) Accurately ripped
 05     [89424ff8|a4967d29] (37+00/42) Accurately ripped
 06     [29f2b54c|5dcd5e65] (35+00/40) Accurately ripped
 07     [d094d4ae|1f1d9360] (36+00/40) Accurately ripped
 08     [aa3b3f8a|9eb8e6ba] (36+00/40) Accurately ripped
 09     [c22b26b4|005465ef] (36+00/40) Accurately ripped
 10     [bdbe1758|02592961] (36+00/40) Accurately ripped
Offsetted by -664:
 01     [bfad7ce9] (03/41) Accurately ripped
 02     [1083e0ee] (03/42) Accurately ripped
 03     [2eeb3b66] (03/42) Accurately ripped
 04     [52fd463c] (03/40) Accurately ripped
 05     [86de3ce0] (03/42) Accurately ripped
 06     [d28a04c1] (03/40) Accurately ripped
 07     [4a838a43] (02/40) Accurately ripped
 08     [a9a16d82] (02/40) Accurately ripped
 09     [1072c33d] (02/40) Accurately ripped
 10     [b443e44e] (02/40) Accurately ripped
Offsetted by -30:
 01     [bd8d7dae] (02/41) Accurately ripped
 02     [1df203ae] (02/42) Accurately ripped
 03     [8b8cc800] (02/42) Accurately ripped
 04     [f8c53504] (02/40) Accurately ripped
 05     [118a0d09] (02/42) Accurately ripped
 06     [4c04d34d] (02/40) Accurately ripped
 07     [a06097b4] (02/40) Accurately ripped
 08     [90293616] (02/40) Accurately ripped
 09     [566aa64c] (02/40) Accurately ripped
 10     [859c2a96] (02/40) Accurately ripped
Track Peak [ CRC32  ] [W/O NULL] [  LOG   ]
 --   98,8 [B6C742D6] [E4BA0457]
 01   98,4 [98059D88] [B011CB2F]   CRC32
 02   98,4 [2FAB6A07] [0417DD64]   CRC32
 03   98,5 [50A04767] [229395D5]   CRC32
 04   98,5 [A6B7522B] [111ACF26]   CRC32
 05   98,5 [43E6A88B] [91F8AECB]   CRC32
 06   98,5 [47AF55C5] [FCDB4BB0]   CRC32
 07   98,4 [3B647DE1] [2BF38565]   CRC32
 08   98,8 [BAF8BB88] [14535444]   CRC32
 09   98,5 [FD782E4E] [0F71D412]   CRC32
 10   98,5 [E412BE13] [967FCF66]   CRC32
Скачивание доступно после регистрации!!
Приватный:
Нет (DHT включён)
Размер:
278.47 Мб (291,993,151 байт) » файлов: 17
Участники:
0 раздают, 0 качают (0 участников всего)
Внешние участники:
34 раздают, 11 качают (45 участников всего) [ Обновить ]
10:21
21
Нет комментариев. Ваш будет первым!