Вы используете незарегистрированную версию компонента "Вкладки"!

Поиск

2001 VA - Global Magic - The Ultimate Act World Jazz Anthology Vol. V {ACT Music ACT 9290-2} [CD]

2001 VA - Global Magic - The Ultimate Act World Jazz Anthology Vol. V {ACT Music ACT 9290-2} [CD]
Стили:
Издатель (лейбл):
Номер по каталогу:
ACT 9290-2
Носитель:
CD
Тип рипа:
tracks
Аудиокодек:
FLAC (*.flac)
Битрейт аудио:
lossless
Время звучания:
01:11:07
Наличие сканов:
буклет pdf
Страна-производитель диска (релиза):
Germany
Релизёр (источник):
artmuss
Лог создания рипа
Exact Audio Copy V0.99 prebeta 5 from 4. May 2009

EAC extraction logfile from 14. November 2009, 0:02

Various / ACT:Global Magic

Used drive  : PIONEER DVR-213N   Adapter: 2  ID: 1

Read mode               : Secure
Utilize accurate stream : Yes
Defeat audio cache      : Yes
Make use of C2 pointers : No

Read offset correction                      : 6
Overread into Lead-In and Lead-Out          : No
Fill up missing offset samples with silence : Yes
Delete leading and trailing silent blocks   : No
Null samples used in CRC calculations       : Yes
Used interface                              : Native Win32 interface for Win NT & 2000
Gap handling                                : Appended to previous track

Used output format              : User Defined Encoder
Selected bitrate                : 128 kBit/s
Quality                         : High
Add ID3 tag                     : No
Command line compressor         : C:\Program Files (x86)\Exact Audio Copy\Flac\flac.exe
Additional command line options : -8 -V -T "ARTIST=%a" -T "TITLE=%t" -T "ALBUM=%g" -T "DATE=%y" -T "TRACKNUMBER=%n" -T "GENRE=%m" -T "COMMENT=EAC FLAC -8" %s

TOC of the extracted CD

     Track |   Start  |  Length  | Start sector | End sector
    ---------------------------------------------------------
        1  |  0:00.00 |  5:42.50 |         0    |    25699
        2  |  5:42.50 |  3:44.73 |     25700    |    42572
        3  |  9:27.48 |  2:56.37 |     42573    |    55809
        4  | 12:24.10 |  3:24.55 |     55810    |    71164
        5  | 15:48.65 |  3:49.43 |     71165    |    88382
        6  | 19:38.33 |  3:56.37 |     88383    |   106119
        7  | 23:34.70 |  5:09.39 |    106120    |   129333
        8  | 28:44.34 |  4:52.66 |    129334    |   151299
        9  | 33:37.25 |  3:43.42 |    151300    |   168066
       10  | 37:20.67 |  3:42.61 |    168067    |   184777
       11  | 41:03.53 |  5:01.44 |    184778    |   207396
       12  | 46:05.22 |  2:13.13 |    207397    |   217384
       13  | 48:18.35 |  1:47.31 |    217385    |   225440
       14  | 50:05.66 |  4:41.39 |    225441    |   246554
       15  | 54:47.30 |  4:11.37 |    246555    |   265416
       16  | 58:58.67 |  4:14.54 |    265417    |   284520
       17  | 63:13.46 |  3:52.23 |    284521    |   301943
       18  | 67:05.69 |  4:01.18 |    301944    |   320036

Track  1

     Filename O:\Upload\Various Artists - ACT Global Magic (2001) [FLAC] {ACT 9290-2}\01 - Esbjorn Svensson Trio - Reminiscence of a Soul.wav

     Pre-gap length  0:00:02.00

     Peak level 99.8 %
     Track quality 99.9 %
     Test CRC F8012AB3
     Copy CRC F8012AB3
     Accurately ripped (confidence 9)  [E6A2187D]
     Copy OK

Track  2

     Filename O:\Upload\Various Artists - ACT Global Magic (2001) [FLAC] {ACT 9290-2}\02 - H. Thanh, Nguyen Le R. Bona, P. Fresu - Two Sisters.wav

     Peak level 99.8 %
     Track quality 100.0 %
     Test CRC 4ED71848
     Copy CRC 4ED71848
     Accurately ripped (confidence 9)  [FD58D877]
     Copy OK

Track  3

     Filename O:\Upload\Various Artists - ACT Global Magic (2001) [FLAC] {ACT 9290-2}\03 - Triocolor - Sakyi's Song.wav

     Peak level 99.8 %
     Track quality 100.0 %
     Test CRC 1E6875C8
     Copy CRC 1E6875C8
     Accurately ripped (confidence 9)  [A1D20F0A]
     Copy OK

Track  4

     Filename O:\Upload\Various Artists - ACT Global Magic (2001) [FLAC] {ACT 9290-2}\04 - Gerardo Nunez, Renaud Garcia-Fons - Un Amor Real.wav

     Peak level 99.8 %
     Track quality 100.0 %
     Test CRC E1B95DD4
     Copy CRC E1B95DD4
     Accurately ripped (confidence 9)  [42FFBB89]
     Copy OK

Track  5

     Filename O:\Upload\Various Artists - ACT Global Magic (2001) [FLAC] {ACT 9290-2}\05 - G. Gil, T. Gurtu, T. Ferragutti, B. Wesseltoft - Tata Engenho Novo.wav

     Peak level 99.8 %
     Track quality 100.0 %
     Test CRC 9050BDDF
     Copy CRC 9050BDDF
     Accurately ripped (confidence 9)  [B3AD4DFA]
     Copy OK

Track  6

     Filename O:\Upload\Various Artists - ACT Global Magic (2001) [FLAC] {ACT 9290-2}\06 - R. Beirach, G. Huebner, G. Mraz - Around Dubrawuschka.wav

     Pre-gap length  0:00:00.21

     Peak level 99.7 %
     Track quality 100.0 %
     Test CRC AD885458
     Copy CRC AD885458
     Accurately ripped (confidence 9)  [ACC3243C]
     Copy OK

Track  7

     Filename O:\Upload\Various Artists - ACT Global Magic (2001) [FLAC] {ACT 9290-2}\07 - K. Ziad, Bojan Z., J.-P. Rykiel, Nguyen Le - Alouhid.wav

     Peak level 99.8 %
     Track quality 100.0 %
     Test CRC E5403D57
     Copy CRC E5403D57
     Accurately ripped (confidence 9)  [8CCF6E51]
     Copy OK

Track  8

     Filename O:\Upload\Various Artists - ACT Global Magic (2001) [FLAC] {ACT 9290-2}\08 - Soriba Kouyate - Diya.wav

     Peak level 99.0 %
     Track quality 99.9 %
     Test CRC EE83743A
     Copy CRC EE83743A
     Accurately ripped (confidence 9)  [5BEB780B]
     Copy OK

Track  9

     Filename O:\Upload\Various Artists - ACT Global Magic (2001) [FLAC] {ACT 9290-2}\09 - K. Erguner, Y. Balcioglu, Nguyen Le R. Garcia-Fons - Twins.wav

     Peak level 99.8 %
     Track quality 100.0 %
     Test CRC 1957AD7C
     Copy CRC 1957AD7C
     Accurately ripped (confidence 9)  [608B7B60]
     Copy OK

Track 10

     Filename O:\Upload\Various Artists - ACT Global Magic (2001) [FLAC] {ACT 9290-2}\10 - E. Ledda, P. Fresu, F. Di Castri, A. Salis - Pregadoria.wav

     Peak level 99.8 %
     Track quality 99.9 %
     Test CRC 40A31B64
     Copy CRC 40A31B64
     Accurately ripped (confidence 9)  [B55BE48F]
     Copy OK

Track 11

     Filename O:\Upload\Various Artists - ACT Global Magic (2001) [FLAC] {ACT 9290-2}\11 - P. Erskine, Nguyen Le M. Benita - Autumn Rose.wav

     Pre-gap length  0:00:00.73

     Peak level 99.8 %
     Track quality 100.0 %
     Test CRC E054D81B
     Copy CRC E054D81B
     Accurately ripped (confidence 9)  [970048A2]
     Copy OK

Track 12

     Filename O:\Upload\Various Artists - ACT Global Magic (2001) [FLAC] {ACT 9290-2}\12 - Bert Wrede - Hamlet # Belleforest.wav

     Peak level 99.8 %
     Track quality 100.0 %
     Test CRC 7C72E7C4
     Copy CRC 7C72E7C4
     Accurately ripped (confidence 9)  [E90496DA]
     Copy OK

Track 13

     Filename O:\Upload\Various Artists - ACT Global Magic (2001) [FLAC] {ACT 9290-2}\13 - Frank Mobus, Der Rote Bereich - Zambujeira Do Mar.wav

     Peak level 99.8 %
     Track quality 100.0 %
     Test CRC 95AE1399
     Copy CRC 95AE1399
     Accurately ripped (confidence 9)  [2135A55C]
     Copy OK

Track 14

     Filename O:\Upload\Various Artists - ACT Global Magic (2001) [FLAC] {ACT 9290-2}\14 - Nils Landgren Funk Unit - Baby Let Me Kiss You.wav

     Peak level 99.8 %
     Track quality 100.0 %
     Test CRC B20B3ABC
     Copy CRC B20B3ABC
     Accurately ripped (confidence 9)  [A5ADDF9B]
     Copy OK

Track 15

     Filename O:\Upload\Various Artists - ACT Global Magic (2001) [FLAC] {ACT 9290-2}\15 - David Binney - The Global Soul.wav

     Pre-gap length  0:00:00.84

     Peak level 86.9 %
     Track quality 100.0 %
     Test CRC 550F36B2
     Copy CRC 550F36B2
     Accurately ripped (confidence 9)  [DFA5A227]
     Copy OK

Track 16

     Filename O:\Upload\Various Artists - ACT Global Magic (2001) [FLAC] {ACT 9290-2}\16 - Sidsel Endresen, Bugge Wesseltoft - I Think it's Gonna Rain Today.wav

     Pre-gap length  0:00:00.73

     Peak level 96.7 %
     Track quality 100.0 %
     Test CRC B6735420
     Copy CRC B6735420
     Accurately ripped (confidence 9)  [D89B15A8]
     Copy OK

Track 17

     Filename O:\Upload\Various Artists - ACT Global Magic (2001) [FLAC] {ACT 9290-2}\17 - Bert Wrede - Frontside Backside.wav

     Pre-gap length  0:00:00.25

     Peak level 99.8 %
     Track quality 100.0 %
     Test CRC 93977CA0
     Copy CRC 93977CA0
     Accurately ripped (confidence 9)  [9046631A]
     Copy OK

Track 18

     Filename O:\Upload\Various Artists - ACT Global Magic (2001) [FLAC] {ACT 9290-2}\18 - Eirik Hegdal's Dingobats - Slowhymn.wav

     Peak level 99.3 %
     Track quality 100.0 %
     Test CRC 21F5262F
     Copy CRC 21F5262F
     Accurately ripped (confidence 9)  [AEA0821F]
     Copy OK

All tracks accurately ripped

No errors occurred

End of status report
Содержание индексной карты (.CUE)
REM GENRE Jazz
REM DATE 2001
REM DISCID 0010AB12
REM COMMENT "ExactAudioCopy v0.99pb5"
PERFORMER "Various"
TITLE "ACT:Global Magic"
FILE "01 - Esbjorn Svensson Trio - Reminiscence of a Soul.wav" WAVE
  TRACK 01 AUDIO
    TITLE "Reminiscence of a Soul"
    PERFORMER "Esbjorn Svensson Trio"
    INDEX 01 00:00:00
FILE "02 - H. Thanh, Nguyen Le R. Bona, P. Fresu - Two Sisters.wav" WAVE
  TRACK 02 AUDIO
    TITLE "Two Sisters"
    PERFORMER "H. Thanh, Nguyen Le R. Bona, P. Fresu"
    INDEX 01 00:00:00
FILE "03 - Triocolor - Sakyi's Song.wav" WAVE
  TRACK 03 AUDIO
    TITLE "Sakyi's Song"
    PERFORMER "Triocolor"
    INDEX 01 00:00:00
FILE "04 - Gerardo Nunez, Renaud Garcia-Fons - Un Amor Real.wav" WAVE
  TRACK 04 AUDIO
    TITLE "Un Amor Real"
    PERFORMER "Gerardo Nunez, Renaud Garcia-Fons"
    INDEX 01 00:00:00
FILE "05 - G. Gil, T. Gurtu, T. Ferragutti, B. Wesseltoft - Tata Engenho Novo.wav" WAVE
  TRACK 05 AUDIO
    TITLE "Tata Engenho Novo"
    PERFORMER "G. Gil, T. Gurtu, T. Ferragutti, B. Wesseltoft"
    INDEX 01 00:00:00
  TRACK 06 AUDIO
    TITLE "Around Dubrawuschka"
    PERFORMER "R. Beirach, G. Huebner, G. Mraz"
    INDEX 00 03:49:27
FILE "06 - R. Beirach, G. Huebner, G. Mraz - Around Dubrawuschka.wav" WAVE
    INDEX 01 00:00:00
FILE "07 - K. Ziad, Bojan Z., J.-P. Rykiel, Nguyen Le - Alouhid.wav" WAVE
  TRACK 07 AUDIO
    TITLE "Alouhid"
    PERFORMER "K. Ziad, Bojan Z., J.-P. Rykiel, Nguyen Le"
    INDEX 01 00:00:00
FILE "08 - Soriba Kouyate - Diya.wav" WAVE
  TRACK 08 AUDIO
    TITLE "Diya"
    PERFORMER "Soriba Kouyate"
    INDEX 01 00:00:00
FILE "09 - K. Erguner, Y. Balcioglu, Nguyen Le R. Garcia-Fons - Twins.wav" WAVE
  TRACK 09 AUDIO
    TITLE "Twins"
    PERFORMER "K. Erguner, Y. Balcioglu, Nguyen Le R. Garcia-Fons"
    INDEX 01 00:00:00
FILE "10 - E. Ledda, P. Fresu, F. Di Castri, A. Salis - Pregadoria.wav" WAVE
  TRACK 10 AUDIO
    TITLE "Pregadoria"
    PERFORMER "E. Ledda, P. Fresu, F. Di Castri, A. Salis"
    INDEX 01 00:00:00
  TRACK 11 AUDIO
    TITLE "Autumn Rose"
    PERFORMER "P. Erskine, Nguyen Le M. Benita"
    INDEX 00 03:42:06
FILE "11 - P. Erskine, Nguyen Le M. Benita - Autumn Rose.wav" WAVE
    INDEX 01 00:00:00
FILE "12 - Bert Wrede - Hamlet # Belleforest.wav" WAVE
  TRACK 12 AUDIO
    TITLE "Hamlet # Belleforest"
    PERFORMER "Bert Wrede"
    INDEX 01 00:00:00
FILE "13 - Frank Mobus, Der Rote Bereich - Zambujeira Do Mar.wav" WAVE
  TRACK 13 AUDIO
    TITLE "Zambujeira Do Mar"
    PERFORMER "Frank Mobus, Der Rote Bereich"
    INDEX 01 00:00:00
FILE "14 - Nils Landgren Funk Unit - Baby Let Me Kiss You.wav" WAVE
  TRACK 14 AUDIO
    TITLE "Baby Let Me Kiss You"
    PERFORMER "Nils Landgren Funk Unit"
    INDEX 01 00:00:00
  TRACK 15 AUDIO
    TITLE "The Global Soul"
    PERFORMER "David Binney"
    INDEX 00 04:40:51
FILE "15 - David Binney - The Global Soul.wav" WAVE
    INDEX 01 00:00:00
  TRACK 16 AUDIO
    TITLE "I Think it's Gonna Rain Today"
    PERFORMER "Sidsel Endresen, Bugge Wesseltoft"
    INDEX 00 04:10:57
FILE "16 - Sidsel Endresen, Bugge Wesseltoft - I Think it's Gonna Rain Today.wav" WAVE
    INDEX 01 00:00:00
  TRACK 17 AUDIO
    TITLE "Frontside Backside"
    PERFORMER "Bert Wrede"
    INDEX 00 04:14:35
FILE "17 - Bert Wrede - Frontside Backside.wav" WAVE
    INDEX 01 00:00:00
FILE "18 - Eirik Hegdal's Dingobats - Slowhymn.wav" WAVE
  TRACK 18 AUDIO
    TITLE "Slowhymn"
    PERFORMER "Eirik Hegdal's Dingobats"
    INDEX 01 00:00:00
Лог проверки качества
AUDIOCHECKER v2.0 beta (build 457) - by Dester - opdester@freemail.hu
~~~~~~~~~~~~~~~~~~~~~~~~~~~~~~~~~~
-=== DO NOT EDIT THIS FILE! ===-

Path: ...\Various Artists - ACT Global Magic (2001) [FLAC] {ACT 9290-2}

01 -=- 01 - Esbjorn Svensson Trio - Reminiscence of a Soul.flac -=- CDDA (100%)
02 -=- 02 - H. Thanh, Nguyen Le R. Bona, P. Fresu - Two Sisters.flac -=- CDDA (100%)
03 -=- 03 - Triocolor - Sakyi's Song.flac -=- CDDA (100%)
04 -=- 04 - Gerardo Nunez, Renaud Garcia-Fons - Un Amor Real.flac -=- CDDA (100%)
05 -=- 05 - G. Gil, T. Gurtu, T. Ferragutti, B. Wesseltoft - Tata Engenho Novo.flac -=- CDDA (99%)
06 -=- 06 - R. Beirach, G. Huebner, G. Mraz - Around Dubrawuschka.flac -=- CDDA (100%)
07 -=- 07 - K. Ziad, Bojan Z., J.-P. Rykiel, Nguyen Le - Alouhid.flac -=- CDDA (100%)
08 -=- 08 - Soriba Kouyate - Diya.flac -=- CDDA (100%)
09 -=- 09 - K. Erguner, Y. Balcioglu, Nguyen Le R. Garcia-Fons - Twins.flac -=- CDDA (100%)
10 -=- 10 - E. Ledda, P. Fresu, F. Di Castri, A. Salis - Pregadoria.flac -=- CDDA (100%)
11 -=- 11 - P. Erskine, Nguyen Le M. Benita - Autumn Rose.flac -=- CDDA (100%)
12 -=- 12 - Bert Wrede - Hamlet # Belleforest.flac -=- CDDA (99%)
13 -=- 13 - Frank Mobus, Der Rote Bereich - Zambujeira Do Mar.flac -=- CDDA (100%)
14 -=- 14 - Nils Landgren Funk Unit - Baby Let Me Kiss You.flac -=- CDDA (100%)
15 -=- 15 - David Binney - The Global Soul.flac -=- CDDA (99%)
16 -=- 16 - Sidsel Endresen, Bugge Wesseltoft - I Think it's Gonna Rain Today.flac -=- MPEG (93%)
17 -=- 17 - Bert Wrede - Frontside Backside.flac -=- CDDA (100%)
18 -=- 18 - Eirik Hegdal's Dingobats - Slowhymn.flac -=- CDDA (100%)

Summary 94,67% CDDA

205847780
Any questions - support@pro-jazz.com. Есть вопросы - support@pro-jazz.com
15:01
173
Нет комментариев. Ваш будет первым!