Поиск

2001 Tom Harrell - Paradise {BMG Bluebird 09026-63738-2} [CD]

2001 Tom Harrell - Paradise {BMG Bluebird 09026-63738-2} [CD]
Издатель (лейбл):
Треклист:

1 Daybreak 5:19
2 Baroque Steps 6:40
3 Nighttime 11:01
4 Wind Chant 10:30
5 Paradise Spring 9:25
Morning Prayer:
6 Part 1 6:49
7 Part 2 2:28
8 Wishing Well 7:30
9 Sunrise 11:07

Состав:
  • Tom Harrell — Flugelhorn, Trumpet
  • Jimmy Greene — Sax Tenor
  • Xavier Davis — Piano
  • Freddie Bryant — Guitar (Electric)
  • Louis Colin — Harp
  • Cenovia Cummins, Belinda Whitney — Violin
  • Juliet Haffner — Viola
  • Daniel Miller, Jeffrey Szabo — Cello
  • Ugonna Okegwo — Bass
  • Leon Parker, Adam Cruz – Drums
  • Cafe — Percussion

Жанр: Post-Bop, Chamber Jazz
Носитель: CD
Год издания: 2001
Номер по каталогу: 09026-63738-2
Аудиокодек: FLAC (*.flac)
Тип рипа: tracks+.cue
Битрейт аудио: lossless
Продолжительность: 01:10:45
Источник: catfish27
Наличие сканов в содержимом раздачи: нет

Лог создания рипа
1 Daybreak 5:19
2 Baroque Steps 6:40
3 Nighttime 11:01
4 Wind Chant 10:30
5 Paradise Spring 9:25
Morning Prayer:
6 Part 1 6:49
7 Part 2 2:28
8 Wishing Well 7:30
9 Sunrise 11:07
Содержание индексной карты (.CUE)
TITLE "Paradise"
PERFORMER "Tom Harrell"
REM GENRE "Jazz"
REM DATE "2001"
REM DISCID 67109409
REM REPLAYGAIN_ALBUM_GAIN -3.22 dB
REM REPLAYGAIN_ALBUM_PEAK 0.998871
REM COMPILATION TRUE
FILE "01 Daybreak.flac" WAVE
  TRACK 01 AUDIO
    TITLE "Daybreak"
    PERFORMER "Tom Harrell"
    SONGWRITER "Tom Harrell"
    ISRC USBC10100063
    REM REPLAYGAIN_TRACK_GAIN -3.07 dB
    REM REPLAYGAIN_TRACK_PEAK 0.998871
    INDEX 01 00:00:00
  TRACK 02 AUDIO
    TITLE "Baroque Steps"
    PERFORMER "Tom Harrell"
    SONGWRITER "Tom Harrell"
    ISRC USBC10100064
    REM REPLAYGAIN_TRACK_GAIN -3.97 dB
    REM REPLAYGAIN_TRACK_PEAK 0.998871
    INDEX 00 05:16:47
FILE "02 Baroque Steps.flac" WAVE
    INDEX 01 00:00:00
  TRACK 03 AUDIO
    TITLE "Nighttime"
    PERFORMER "Tom Harrell"
    SONGWRITER "Tom Harrell"
    ISRC USBC10100065
    REM REPLAYGAIN_TRACK_GAIN -3.44 dB
    REM REPLAYGAIN_TRACK_PEAK 0.998871
    INDEX 00 06:38:15
FILE "03 Nighttime.flac" WAVE
    INDEX 01 00:00:00
  TRACK 04 AUDIO
    TITLE "Wind Chant"
    PERFORMER "Tom Harrell"
    SONGWRITER "Tom Harrell"
    ISRC USBC10100066
    REM REPLAYGAIN_TRACK_GAIN -3.28 dB
    REM REPLAYGAIN_TRACK_PEAK 0.998871
    INDEX 00 10:59:00
FILE "04 Wind Chant.flac" WAVE
    INDEX 01 00:00:00
  TRACK 05 AUDIO
    TITLE "Paradise Spring"
    PERFORMER "Tom Harrell"
    SONGWRITER "Tom Harrell"
    ISRC USBC10100067
    REM REPLAYGAIN_TRACK_GAIN -2.78 dB
    REM REPLAYGAIN_TRACK_PEAK 0.998871
    INDEX 00 10:26:45
FILE "05 Paradise Spring.flac" WAVE
    INDEX 01 00:00:00
  TRACK 06 AUDIO
    TITLE "Morning Prayer Part 1"
    PERFORMER "Tom Harrell"
    SONGWRITER "Tom Harrell"
    ISRC USBC10100070
    REM REPLAYGAIN_TRACK_GAIN 0.37 dB
    REM REPLAYGAIN_TRACK_PEAK 0.794434
    INDEX 00 09:21:07
FILE "06 Morning Prayer Part 1.flac" WAVE
    INDEX 01 00:00:00
  TRACK 07 AUDIO
    TITLE "Morning Prayer Part 2"
    PERFORMER "Tom Harrell"
    SONGWRITER "Tom Harrell"
    ISRC USBC10100071
    REM REPLAYGAIN_TRACK_GAIN -4.09 dB
    REM REPLAYGAIN_TRACK_PEAK 0.998871
    INDEX 00 06:47:48
FILE "07 Morning Prayer Part 2.flac" WAVE
    INDEX 01 00:00:00
  TRACK 08 AUDIO
    TITLE "Wishing Well"
    PERFORMER "Tom Harrell"
    SONGWRITER "Tom Harrell"
    ISRC USBC10100068
    REM REPLAYGAIN_TRACK_GAIN -3.06 dB
    REM REPLAYGAIN_TRACK_PEAK 0.959198
    INDEX 00 02:27:10
FILE "08 Wishing Well.flac" WAVE
    INDEX 01 00:00:00
  TRACK 09 AUDIO
    TITLE "Sunrise"
    PERFORMER "Tom Harrell"
    SONGWRITER "Tom Harrell"
    ISRC USBC10100069
    REM REPLAYGAIN_TRACK_GAIN -3.60 dB
    REM REPLAYGAIN_TRACK_PEAK 0.998871
    INDEX 00 07:26:62
FILE "09 Sunrise.flac" WAVE
    INDEX 01 00:00:00
Download available for power users only.
18:59
538
Нет комментариев. Ваш будет первым!