Поиск

2001 Richard Cole - The Forgotten {Origin 82384} [CD]

2001 Richard Cole - The Forgotten {Origin 82384} [CD]
Треклист:

01. Any Skynyrd (09:04)
02. The Best Thing for You (05:49)
03. Angel Eyes (06:45)
04. Without a Song (06:56)
05. The Midnight Sun (08:02)
06. The Rub (07:21)
07. Be Thou My Vision (05:45)
08. Somnambulist (06:47)
09. Free Time (06:50)
10. The Forgotten (06:24)

Состав:
  • Richard Cole — Tenor Saxophon
  • Randy Brecker — Trumpet (1,4,5)
  • David Peterson — Guitar (7,8)
  • Joey Calderazzo — Piano (2,6)
  • John Hansen — Piano (3,6,8,9)
  • Randy Porter — Piano (1,4,5,10)
  • Chuck Bergeron — Bass
  • Adam Nussbaum — Drums (2,3,6,7,8,9)
  • Gary Hobbs — Drums (1,4,5,10)

Жанр: Contemporary Jazz, Post-Bop
Носитель: CD
Год издания: 2001
Издатель (лейбл): Origin Records
Номер по каталогу: 82384
Аудиокодек: FLAC (*.flac)
Тип рипа: tracks+.cue
Битрейт аудио: lossless
Продолжительность: 01:09:47
Источник: www
Наличие сканов в содержимом раздачи: нет

Лог создания рипа
X Lossless Decoder version 20181019 (151.1)

XLD extraction logfile from 2019-01-30 16:56:39 -0800

Richard Cole / The Forgotten

Used drive : hp DVDRAM GT20L (revision DC05)
Media type : Pressed CD

Ripper mode             : XLD Secure Ripper
Disable audio cache     : OK for the drive with a cache less than 1375KiB
Make use of C2 pointers : NO
Read offset correction  : 667
Max retry count         : 100
Gap status              : Analyzed, Appended (except HTOA)

TOC of the extracted CD
     Track |   Start  |  Length  | Start sector | End sector
    ---------------------------------------------------------
        1  | 00:00:00 | 09:04:70 |         0    |    40869
        2  | 09:04:70 | 05:53:14 |     40870    |    67358
        3  | 14:58:09 | 06:46:60 |     67359    |    97868
        4  | 21:44:69 | 07:00:48 |     97869    |   129416
        5  | 28:45:42 | 08:06:01 |    129417    |   165867
        6  | 36:51:43 | 07:26:06 |    165868    |   199323
        7  | 44:17:49 | 05:51:18 |    199324    |   225666
        8  | 50:08:67 | 06:51:14 |    225667    |   256505
        9  | 57:00:06 | 06:54:14 |    256506    |   287569
       10  | 63:54:20 | 06:24:13 |    287570    |   316382

AccurateRip Summary
    Disc not found in AccurateRip DB.

All Tracks
    Album gain               : -3.86 dB
    Peak                     : 0.999420
    Statistics
        Read error                           : 0
        Jitter error (maybe fixed)           : 0
        Retry sector count                   : 0
        Damaged sector count                 : 0

Track 01
    Filename : /rips/Richard Cole - The Forgotten (Unknown Year) [FLAC]/01 Any Skynyrd.flac
    Pre-gap length : 00:02:00

    Track gain               : -4.56 dB
    Peak                     : 0.999420
    CRC32 hash (test run)    : FD5D1529
    CRC32 hash               : FD5D1529
    CRC32 hash (skip zero)   : 1305DA33
    AccurateRip v1 signature : 594E2B96
    AccurateRip v2 signature : BC69ACAC
        ->Track not present in AccurateRip database.
    Statistics
        Read error                           : 0
        Jitter error (maybe fixed)           : 0
        Retry sector count                   : 0
        Damaged sector count                 : 0

Track 02
    Filename : /rips/Richard Cole - The Forgotten (Unknown Year) [FLAC]/02 The Best Thing for You.flac

    Track gain               : -5.07 dB
    Peak                     : 0.922058
    CRC32 hash (test run)    : 2BF8468B
    CRC32 hash               : 2BF8468B
    CRC32 hash (skip zero)   : 5E45A485
    AccurateRip v1 signature : 46D12468
    AccurateRip v2 signature : 1FC82AD9
        ->Track not present in AccurateRip database.
    Statistics
        Read error                           : 0
        Jitter error (maybe fixed)           : 0
        Retry sector count                   : 0
        Damaged sector count                 : 0

Track 03
    Filename : /rips/Richard Cole - The Forgotten (Unknown Year) [FLAC]/03 Angel Eyes.flac
    Pre-gap length : 00:03:34

    Track gain               : -1.94 dB
    Peak                     : 0.999115
    CRC32 hash (test run)    : B793E92E
    CRC32 hash               : B793E92E
    CRC32 hash (skip zero)   : 16A3892B
    AccurateRip v1 signature : 62EF1577
    AccurateRip v2 signature : 952E053F
        ->Track not present in AccurateRip database.
    Statistics
        Read error                           : 0
        Jitter error (maybe fixed)           : 0
        Retry sector count                   : 0
        Damaged sector count                 : 0

Track 04
    Filename : /rips/Richard Cole - The Forgotten (Unknown Year) [FLAC]/04 Without a Song.flac
    Pre-gap length : 00:01:47

    Track gain               : -3.62 dB
    Peak                     : 0.988373
    CRC32 hash (test run)    : ABADF7B3
    CRC32 hash               : ABADF7B3
    CRC32 hash (skip zero)   : C961406B
    AccurateRip v1 signature : A65DB949
    AccurateRip v2 signature : D208F1B1
        ->Track not present in AccurateRip database.
    Statistics
        Read error                           : 0
        Jitter error (maybe fixed)           : 0
        Retry sector count                   : 0
        Damaged sector count                 : 0

Track 05
    Filename : /rips/Richard Cole - The Forgotten (Unknown Year) [FLAC]/05 The Midnight Sun.flac
    Pre-gap length : 00:03:57

    Track gain               : -0.23 dB
    Peak                     : 0.756409
    CRC32 hash (test run)    : A6867FCC
    CRC32 hash               : A6867FCC
    CRC32 hash (skip zero)   : 777ECCDC
    AccurateRip v1 signature : 8B39ECC6
    AccurateRip v2 signature : 24EB1E31
        ->Track not present in AccurateRip database.
    Statistics
        Read error                           : 0
        Jitter error (maybe fixed)           : 0
        Retry sector count                   : 0
        Damaged sector count                 : 0

Track 06
    Filename : /rips/Richard Cole - The Forgotten (Unknown Year) [FLAC]/06 The Rub.flac
    Pre-gap length : 00:03:57

    Track gain               : -4.79 dB
    Peak                     : 0.995575
    CRC32 hash (test run)    : 58C69BCF
    CRC32 hash               : 58C69BCF
    CRC32 hash (skip zero)   : 8247B855
    AccurateRip v1 signature : 54E5BF13
    AccurateRip v2 signature : 882CC8B3
        ->Track not present in AccurateRip database.
    Statistics
        Read error                           : 0
        Jitter error (maybe fixed)           : 0
        Retry sector count                   : 0
        Damaged sector count                 : 0

Track 07
    Filename : /rips/Richard Cole - The Forgotten (Unknown Year) [FLAC]/07 Be Thou My Vision.flac
    Pre-gap length : 00:04:66

    Track gain               : -5.15 dB
    Peak                     : 0.998169
    CRC32 hash (test run)    : 0C94ACE4
    CRC32 hash               : 0C94ACE4
    CRC32 hash (skip zero)   : 8798762B
    AccurateRip v1 signature : 81FF5FCB
    AccurateRip v2 signature : AE6D7A03
        ->Track not present in AccurateRip database.
    Statistics
        Read error                           : 0
        Jitter error (maybe fixed)           : 0
        Retry sector count                   : 0
        Damaged sector count                 : 0

Track 08
    Filename : /rips/Richard Cole - The Forgotten (Unknown Year) [FLAC]/08 Somnambulist.flac
    Pre-gap length : 00:05:39

    Track gain               : -2.52 dB
    Peak                     : 0.953033
    CRC32 hash (test run)    : 2CFD0296
    CRC32 hash               : 2CFD0296
    CRC32 hash (skip zero)   : 512DD821
    AccurateRip v1 signature : 1B00E1B5
    AccurateRip v2 signature : A9F948FB
        ->Track not present in AccurateRip database.
    Statistics
        Read error                           : 0
        Jitter error (maybe fixed)           : 0
        Retry sector count                   : 0
        Damaged sector count                 : 0

Track 09
    Filename : /rips/Richard Cole - The Forgotten (Unknown Year) [FLAC]/09 Free Time.flac
    Pre-gap length : 00:03:57

    Track gain               : -3.79 dB
    Peak                     : 0.999207
    CRC32 hash (test run)    : 28375419
    CRC32 hash               : 28375419
    CRC32 hash (skip zero)   : 06012EB2
    AccurateRip v1 signature : 5A272964
    AccurateRip v2 signature : 0D19BF52
        ->Track not present in AccurateRip database.
    Statistics
        Read error                           : 0
        Jitter error (maybe fixed)           : 0
        Retry sector count                   : 0
        Damaged sector count                 : 0

Track 10
    Filename : /rips/Richard Cole - The Forgotten (Unknown Year) [FLAC]/10 The Forgotten.flac
    Pre-gap length : 00:03:57

    Track gain               : -3.32 dB
    Peak                     : 0.984161
    CRC32 hash (test run)    : 1DE383A8
    CRC32 hash               : 1DE383A8
    CRC32 hash (skip zero)   : CBB34C71
    AccurateRip v1 signature : 2E4B3341
    AccurateRip v2 signature : 037DBC44
        ->Track not present in AccurateRip database.
    Statistics
        Read error                           : 0
        Jitter error (maybe fixed)           : 0
        Retry sector count                   : 0
        Damaged sector count                 : 0

No errors occurred

End of status report

-----BEGIN XLD SIGNATURE-----
w9WLqTyFiR35uDUyo4PXOanWAXizyz8rPunpb3ZoPAuXIR9eUAaXXCdp2gFQ_q5NP6vh3TGPhSo9TlrxOcqf7X1rFd7cKDtfnfmHeMe
-----END XLD SIGNATURE-----
Содержание индексной карты (.CUE)
TITLE "The Forgotten"
PERFORMER "Richard Cole"
REM DISCID 76107A0A
REM REPLAYGAIN_ALBUM_GAIN -3.86 dB
REM REPLAYGAIN_ALBUM_PEAK 0.999420
FILE "01 Any Skynyrd.flac" WAVE
  TRACK 01 AUDIO
    TITLE "Any Skynyrd"
    REM REPLAYGAIN_TRACK_GAIN -4.56 dB
    REM REPLAYGAIN_TRACK_PEAK 0.999420
    INDEX 01 00:00:00
FILE "02 The Best Thing for You.flac" WAVE
  TRACK 02 AUDIO
    TITLE "The Best Thing for You"
    REM REPLAYGAIN_TRACK_GAIN -5.07 dB
    REM REPLAYGAIN_TRACK_PEAK 0.922058
    INDEX 01 00:00:00
  TRACK 03 AUDIO
    TITLE "Angel Eyes"
    REM REPLAYGAIN_TRACK_GAIN -1.94 dB
    REM REPLAYGAIN_TRACK_PEAK 0.999115
    INDEX 00 05:49:55
FILE "03 Angel Eyes.flac" WAVE
    INDEX 01 00:00:00
  TRACK 04 AUDIO
    TITLE "Without a Song"
    REM REPLAYGAIN_TRACK_GAIN -3.62 dB
    REM REPLAYGAIN_TRACK_PEAK 0.988373
    INDEX 00 06:45:13
FILE "04 Without a Song.flac" WAVE
    INDEX 01 00:00:00
  TRACK 05 AUDIO
    TITLE "The Midnight Sun"
    REM REPLAYGAIN_TRACK_GAIN -0.23 dB
    REM REPLAYGAIN_TRACK_PEAK 0.756409
    INDEX 00 06:56:66
FILE "05 The Midnight Sun.flac" WAVE
    INDEX 01 00:00:00
  TRACK 06 AUDIO
    TITLE "The Rub"
    REM REPLAYGAIN_TRACK_GAIN -4.79 dB
    REM REPLAYGAIN_TRACK_PEAK 0.995575
    INDEX 00 08:02:19
FILE "06 The Rub.flac" WAVE
    INDEX 01 00:00:00
  TRACK 07 AUDIO
    TITLE "Be Thou My Vision"
    REM REPLAYGAIN_TRACK_GAIN -5.15 dB
    REM REPLAYGAIN_TRACK_PEAK 0.998169
    INDEX 00 07:21:15
FILE "07 Be Thou My Vision.flac" WAVE
    INDEX 01 00:00:00
  TRACK 08 AUDIO
    TITLE "Somnambulist"
    REM REPLAYGAIN_TRACK_GAIN -2.52 dB
    REM REPLAYGAIN_TRACK_PEAK 0.953033
    INDEX 00 05:45:54
FILE "08 Somnambulist.flac" WAVE
    INDEX 01 00:00:00
  TRACK 09 AUDIO
    TITLE "Free Time"
    REM REPLAYGAIN_TRACK_GAIN -3.79 dB
    REM REPLAYGAIN_TRACK_PEAK 0.999207
    INDEX 00 06:47:32
FILE "09 Free Time.flac" WAVE
    INDEX 01 00:00:00
  TRACK 10 AUDIO
    TITLE "The Forgotten"
    REM REPLAYGAIN_TRACK_GAIN -3.32 dB
    REM REPLAYGAIN_TRACK_PEAK 0.984161
    INDEX 00 06:50:32
FILE "10 The Forgotten.flac" WAVE
    INDEX 01 00:00:00
Download available for power users only.
16:49
327
Нет комментариев. Ваш будет первым!