Поиск

2001 John K. - Romantic Guitar II {Number One NCD 8.1081} [CD]

2001 John K. - Romantic Guitar II {Number One NCD 8.1081} [CD]

01. Smoke Gets In Your Eyes
02. Unforgettable
03. Tonight I Celebrate My Love
04. From The Distant
05. What A WonderfullWorld
06. Early Shell
07. Sometimes When We Touch
08. I'll Never Been To Me
09. I Don't Like To Sleep Alone
10. Will You Still Love Me
11. Daniel
12. You Mean Everything To Me
13. Maria Elena
14. Baby Elephant Walk

Носитель: CD
Страна-производитель диска (релиза): Europe
Год издания: 2001
Издатель (лейбл): Number One Music
Номер по каталогу: NCD 8.1081
Аудиокодек: FLAC (*.flac)
Dynamic Range Meter: DR12
Тип рипа: image+.cue
Битрейт аудио: lossless
Продолжительность: 00:46:49
Источник: Necroblast
Наличие сканов в содержимом раздачи: да

Лог создания рипа
Exact Audio Copy V1.0 beta 3 from 29. August 2011

Отчёт EAC об извлечении, выполненном 27. января 2019, 20:17

Johh K. / Romantic Guitar II

Дисковод: ASUS    DRW-1608P   Adapter: 2  ID: 0

Режим чтения                 : Достоверность
Использование точного потока : Да
Отключение кэша аудио        : Да
Использование указателей C2  : Нет

Коррекция смещения при чтении                     : 48
Способность читать области Lead-in и Lead-out     : Нет
Заполнение пропущенных сэмплов тишиной            : Да
Удаление блоков с тишиной в начале и конце        : Нет
При вычислениях CRC использовались нулевые сэмплы : Да
Интерфейс                                         : Встроенный Win32-интерфейс для Win NT/2000

Выходной формат          : Пользовательский кодировщик
Выбранный битрейт        : 1024 kBit/s
Качество                 : Высокий
Добавление ID3-тега      : Нет
Утилита сжатия           : C:\Program Files\FLAC\flac.exe
Дополнительные параметры : -V -8 -T "Date=%year%" -T "Genre=%genre%" %source%

TOC извлечённого CD

     Трек |   Старт  | Длительность | Начальный сектор | Конечный сектор
    ---------------------------------------------------------------------
       1  |  0:00.00 |    2:39.06   |           0      |      11930
       2  |  2:39.06 |    3:51.10   |       11931      |      29265
       3  |  6:30.16 |    3:24.03   |       29266      |      44568
       4  |  9:54.19 |    4:30.20   |       44569      |      64838
       5  | 14:24.39 |    2:20.61   |       64839      |      75399
       6  | 16:45.25 |    2:13.21   |       75400      |      85395
       7  | 18:58.46 |    4:54.05   |       85396      |     107450
       8  | 23:52.51 |    3:22.30   |      107451      |     122630
       9  | 27:15.06 |    3:14.61   |      122631      |     137241
      10  | 30:29.67 |    4:02.48   |      137242      |     155439
      11  | 34:32.40 |    3:51.03   |      155440      |     172767
      12  | 38:23.43 |    2:16.72   |      172768      |     183039
      13  | 40:40.40 |    3:17.32   |      183040      |     197846
      14  | 43:57.72 |    2:50.65   |      197847      |     210661

Характеристики диапазона извлечения и сообщения об ошибках

Выбранный диапазон

     Имя файла H:\John K. - Romantic Guitar II [CD] - 2001 (lossless)\Johh K. - Romantic Guitar II.wav

     Пиковый уровень 100.0 %
     Скорость извлечения 7.0 X
     Качество диапазона 100.0 %
     CRC теста E93541C7
     CRC копии E93541C7
     Копирование... OK

Ошибок не произошло

AccurateRip: сводка

Трек  1  отсутствует в базе данных
Трек  2  отсутствует в базе данных
Трек  3  отсутствует в базе данных
Трек  4  отсутствует в базе данных
Трек  5  отсутствует в базе данных
Трек  6  отсутствует в базе данных
Трек  7  отсутствует в базе данных
Трек  8  отсутствует в базе данных
Трек  9  отсутствует в базе данных
Трек 10  отсутствует в базе данных
Трек 11  отсутствует в базе данных
Трек 12  отсутствует в базе данных
Трек 13  отсутствует в базе данных
Трек 14  отсутствует в базе данных

Ни одного трека нет в базе AccurateRip

Конец отчёта

==== Контрольная сумма отчёта CC60B1A7A95F91C6BF7A71FCE61C3BD516B42817DD0B04A1D4D95E652757C2B2 ====
Содержание индексной карты (.CUE)
REM GENRE Instrumental
REM DATE 2001
REM DISCID AF0AF80E
REM COMMENT "ExactAudioCopy v1.0b3"
PERFORMER "Johh K."
TITLE "Romantic Guitar II"
FILE "Johh K. - Romantic Guitar II.flac" WAVE
  TRACK 01 AUDIO
    TITLE "Smoke Gets In Your Eyes"
    PERFORMER "Johh K."
    FLAGS DCP
    INDEX 01 00:00:00
  TRACK 02 AUDIO
    TITLE "Unforgettable"
    PERFORMER "Johh K."
    FLAGS DCP
    INDEX 01 02:39:06
  TRACK 03 AUDIO
    TITLE "Tonight I Celebrate My Love"
    PERFORMER "Johh K."
    FLAGS DCP
    INDEX 01 06:30:16
  TRACK 04 AUDIO
    TITLE "From The Distant"
    PERFORMER "Johh K."
    FLAGS DCP
    INDEX 01 09:54:19
  TRACK 05 AUDIO
    TITLE "What A Wonderful World"
    PERFORMER "Johh K."
    FLAGS DCP
    INDEX 01 14:24:39
  TRACK 06 AUDIO
    TITLE "Pearly Shell"
    PERFORMER "Johh K."
    FLAGS DCP
    INDEX 01 16:45:25
  TRACK 07 AUDIO
    TITLE "SometimesWhen We Touch"
    PERFORMER "Johh K."
    FLAGS DCP
    INDEX 01 18:58:46
  TRACK 08 AUDIO
    TITLE "I'll Never Been To Me"
    PERFORMER "Johh K."
    FLAGS DCP
    INDEX 01 23:52:51
  TRACK 09 AUDIO
    TITLE "I Don't Like To Sleep Alone"
    PERFORMER "Johh K."
    FLAGS DCP
    INDEX 01 27:15:06
  TRACK 10 AUDIO
    TITLE "Will You Still Love Me"
    PERFORMER "Johh K."
    FLAGS DCP
    INDEX 01 30:29:67
  TRACK 11 AUDIO
    TITLE "Daniel"
    PERFORMER "Johh K."
    FLAGS DCP
    INDEX 01 34:32:40
  TRACK 12 AUDIO
    TITLE "You Mean Everything To Me"
    PERFORMER "Johh K."
    FLAGS DCP
    INDEX 01 38:23:43
  TRACK 13 AUDIO
    TITLE "Maria Elena"
    PERFORMER "Johh K."
    FLAGS DCP
    INDEX 01 40:40:40
  TRACK 14 AUDIO
    TITLE "Baby Elephant Walk"
    PERFORMER "Johh K."
    FLAGS DCP
    INDEX 01 43:57:72
Лог проверки качества
-----------------------

DON'T MODIFY THIS FILE

-----------------------

PERFORMER: auCDtect Task Manager, ver. 1.6.0 RC1 build 1.6.0.1
Copyright (c) 2008-2010 y-soft. All rights reserved
http://y-soft.org

ANALYZER: auCDtect: CD records authenticity detector, version 0.8.2
Copyright (c) 2004 Oleg Berngardt. All rights reserved.
Copyright (c) 2004 Alexander Djourik. All rights reserved.

FILE: Johh K. - Romantic Guitar II.flac
  Size: 304646730 Hash: 12A430E88A6AFE9681244223B9E07A04 Accuracy: -m0
  Conclusion: CDDA 100%
  Signature: 500B6025536933820F32B1EE7D63A06FAB92FC94
Скриншот спектра частот
2001 John K. - Romantic Guitar II {Number One NCD 8.1081} [CD] 0
17:21
770
15:22