Вы используете незарегистрированную версию компонента "Вкладки"!

Поиск

2001 Beegie Adair - Dream Dancing Songs of Cole Porter {Hillsboro Music GHD5227} [CD]

2001 Beegie Adair - Dream Dancing Songs of Cole Porter {Hillsboro Music GHD5227} [CD]
Носитель:
CD
Тип рипа:
image
Аудиокодек:
FLAC (*.flac)
Битрейт аудио:
lossless
Время звучания:
01:04:38
Наличие сканов:
web
Страна-производитель диска (релиза):
USA
Релизёр (источник):
M0p94ok
Лог создания рипа
Exact Audio Copy V1.0 beta 3 from 29. August 2011

Отчёт EAC об извлечении, выполненном 26. января 2014, 19:14

Beegie Adair / Dream Dancing

Дисковод: _NEC    DVD_RW ND-3540A   Adapter: 0  ID: 0

Режим чтения                 : Достоверность
Использование точного потока : Да
Отключение кэша аудио        : Да
Использование указателей C2  : Нет

Коррекция смещения при чтении                     : 48
Способность читать области Lead-in и Lead-out     : Нет
Заполнение пропущенных сэмплов тишиной            : Да
Удаление блоков с тишиной в начале и конце        : Нет
При вычислениях CRC использовались нулевые сэмплы : Да
Интерфейс                                         : Встроенный Win32-интерфейс для Win NT/2000

Выходной формат          : Пользовательский кодировщик
Выбранный битрейт        : 512 kBit/s
Качество                 : Высокий
Добавление ID3-тега      : Нет
Утилита сжатия           : G:\Program Files\Exact Audio Copy\Flac\flac.exe
Дополнительные параметры : -V -8 -T "Date=%year%" -T "Genre=%genre%" %source%

TOC извлечённого CD

     Трек |   Старт  | Длительность | Начальный сектор | Конечный сектор
    ---------------------------------------------------------------------
       1  |  0:00.00 |    4:26.74   |           0      |      20023
       2  |  4:26.74 |    3:37.27   |       20024      |      36325
       3  |  8:04.26 |    4:45.06   |       36326      |      57706
       4  | 12:49.32 |    5:37.61   |       57707      |      83042
       5  | 18:27.18 |    5:26.08   |       83043      |     107500
       6  | 23:53.26 |    4:48.59   |      107501      |     129159
       7  | 28:42.10 |    3:40.57   |      129160      |     145716
       8  | 32:22.67 |    4:22.15   |      145717      |     165381
       9  | 36:45.07 |    4:54.41   |      165382      |     187472
      10  | 41:39.48 |    4:38.40   |      187473      |     208362
      11  | 46:18.13 |    5:03.11   |      208363      |     231098
      12  | 51:21.24 |    4:13.00   |      231099      |     250073
      13  | 55:34.24 |    3:41.40   |      250074      |     266688
      14  | 59:15.64 |    5:22.39   |      266689      |     290877

Характеристики диапазона извлечения и сообщения об ошибках

Выбранный диапазон

     Имя файла Z:\Download\Music\MyOwn\Beegie Adair - 2001 - Dream Dancing\Beegie Adair - Dream Dancing.wav

     Пиковый уровень 99.2 %
     Скорость извлечения 4.2 X
     Качество диапазона 100.0 %
     CRC теста A6C44BF8
     CRC копии A6C44BF8
     Копирование... OK

Ошибок не произошло

AccurateRip: сводка

Трек  1  : извлечено точно (доверие 4)  [16844CB7]  (AR v2)
Трек  2  : извлечено точно (доверие 4)  [AC6E45C6]  (AR v2)
Трек  3  : извлечено точно (доверие 4)  [BBF584CB]  (AR v2)
Трек  4  : извлечено точно (доверие 4)  [DB60C365]  (AR v2)
Трек  5  : извлечено точно (доверие 4)  [B5F7C95D]  (AR v2)
Трек  6  : извлечено точно (доверие 4)  [DAC40141]  (AR v2)
Трек  7  : извлечено точно (доверие 3)  [6F02B49E]  (AR v2)
Трек  8  : извлечено точно (доверие 3)  [1939A481]  (AR v2)
Трек  9  : извлечено точно (доверие 3)  [4517AA38]  (AR v2)
Трек 10  : извлечено точно (доверие 3)  [27EFA20A]  (AR v2)
Трек 11  : извлечено точно (доверие 3)  [3492DAA3]  (AR v2)
Трек 12  : извлечено точно (доверие 3)  [68EF14B9]  (AR v2)
Трек 13  : извлечено точно (доверие 3)  [72A89E6E]  (AR v2)
Трек 14  : извлечено точно (доверие 3)  [80BD8404]  (AR v2)

Все треки извлечены точно

Конец отчёта

==== Контрольная сумма отчёта A83590BDDB7356F7E15C29B591434B1BEFEE3EC4500597A5E6F59C4202A269D7 ====
Содержание индексной карты (.CUE)
REM GENRE Jazz
REM DISCID C00F260E
REM COMMENT "ExactAudioCopy v1.0b3"
PERFORMER "Beegie Adair"
TITLE "Dream Dancing"
FILE "Beegie Adair - Dream Dancing.flac" WAVE
  TRACK 01 AUDIO
    TITLE "You'd Be So Nice to Come Home To"
    INDEX 01 00:00:00
  TRACK 02 AUDIO
    TITLE "You're the Top"
    INDEX 00 04:25:29
    INDEX 01 04:26:74
  TRACK 03 AUDIO
    TITLE "I Love Paris"
    INDEX 00 08:02:56
    INDEX 01 08:04:26
  TRACK 04 AUDIO
    TITLE "So in Love"
    INDEX 00 12:47:62
    INDEX 01 12:49:32
  TRACK 05 AUDIO
    TITLE "I Concentrate on You"
    INDEX 00 18:25:48
    INDEX 01 18:27:18
  TRACK 06 AUDIO
    TITLE "Dream Dancing"
    INDEX 00 23:51:56
    INDEX 01 23:53:26
  TRACK 07 AUDIO
    TITLE "I Love You"
    INDEX 00 28:40:40
    INDEX 01 28:42:10
  TRACK 08 AUDIO
    TITLE "What Is This Thing Called Love"
    INDEX 00 32:21:22
    INDEX 01 32:22:67
  TRACK 09 AUDIO
    TITLE "Easy to Love"
    INDEX 00 36:43:37
    INDEX 01 36:45:07
  TRACK 10 AUDIO
    TITLE "Every Time We Say Goodbye"
    INDEX 00 41:38:03
    INDEX 01 41:39:48
  TRACK 11 AUDIO
    TITLE "It's All Right with Me"
    INDEX 00 46:16:43
    INDEX 01 46:18:13
  TRACK 12 AUDIO
    TITLE "Why Shouldn't I"
    INDEX 00 51:19:54
    INDEX 01 51:21:24
  TRACK 13 AUDIO
    TITLE "From This Moment On"
    INDEX 00 55:32:54
    INDEX 01 55:34:24
  TRACK 14 AUDIO
    TITLE "Begin the Beguine"
    INDEX 00 59:14:19
    INDEX 01 59:15:64
Any questions - support@pro-jazz.com. Есть вопросы - support@pro-jazz.com
16:58
168
Нет комментариев. Ваш будет первым!