Поиск

2000 Quincy Jones - Sammy Nestico Orchestra - Basie & Beyond {Warner Bros. 9362-47792-2}

2000 Quincy Jones - Sammy Nestico Orchestra - Basie & Beyond {Warner Bros. 9362-47792-2}
Страна-производитель диска (релиза):
USA
Дата издания диска:
3 октября 2000
Издатель (лейбл):
Номер по каталогу:
9362-47792-2
Носитель:
CD
Битрейт аудио:
lossless
Аудиокодек:
FLAC (*.flac)
Тип рипа:
image+.cue
Время звучания:
1:04:10
Наличие сканов:
  • да
Релизёр (источник):
Oceandrop
Треклист:

01. Ya Gotta Try... Harder! (5:40)
02. Belly Roll (5:15)
03. Grace (5:20)
04. The Joy Of Cookin' (6:22)
05. Quintessence (4:47)
06. How Sweet It Is (7:21)
07. Hard Sock Dance (4:21)
08. The Witching Hour (5:16)
09. For Lena And Lennie (4:19)
10. No Time Like The Present (5:30)
11. Lisette (4:10)
12. Out Of The Night (5:50)

Состав:
  • piano: Randy Kerber
  • electric piano: Greg Phillinganes
  • electric guitar: Paul Jackson, Jr.
  • acoustic bass: Chuck Berghofer (1, 6, 7, 8, 9, 10)
  • electric bass: Neil Stubenhaus (2, 3, 11, 12); Jimmy Johnson (4, 5)
  • drums: Vinnie Colaiuta
  • additional drums: Harold Jones (6, 10)
  • vibes, percussion: Emil Richards
  • additional percussion: Paulinho Da Costa (3, 12)
  • saxophones and woodwinds: Dan Higgins, Gary Foster, Ernie Watts, Pete Christlieb, Gerald Albright, Jack Nimitz
  • trumpets: Gary Grant, Warren Luening, Rick Baptist, Oscar Brashear, Wayne Bergeron, Jerry Hey
  • trombones: Charlie Loper, George Bohannon, Bill Watrous, Bill Reichenbach, Reggie Young
  • french horns: Jerry Folsom, Brad Warnaar, Greg Williams
  • tuba: Tommy Johnson
  • additional soloists:
  • soprano and tenor sax: Kirk Whalum (3, 4, 10)
  • flute: Hubert Laws (1, 6, 12)

Записано в 

  • Capitol Studios A And C, Hollywood, CA
  • NRG Recording, Morth Hollywood, CA
Лог создания рипа
Exact Audio Copy V0.99 prebeta 5 from 4. May 2009

EAC extraction logfile from 19. March 2010, 17:22

The Quincy Jones - Sammy Nestico Orchestra / Basie & Beyond

Used drive  : ASUS    DRW-1608P3S   Adapter: 0  ID: 1

Read mode               : Secure
Utilize accurate stream : Yes
Defeat audio cache      : Yes
Make use of C2 pointers : No

Read offset correction                      : 48
Overread into Lead-In and Lead-Out          : No
Fill up missing offset samples with silence : Yes
Delete leading and trailing silent blocks   : No
Null samples used in CRC calculations       : Yes
Used interface                              : Native Win32 interface for Win NT & 2000

Used output format : Internal WAV Routines
Sample format      : 44.100 Hz; 16 Bit; Stereo

TOC of the extracted CD

     Track |   Start  |  Length  | Start sector | End sector
    ---------------------------------------------------------
        1  |  0:00.00 |  5:39.60 |         0    |    25484
        2  |  5:39.60 |  5:15.27 |     25485    |    49136
        3  | 10:55.12 |  5:20.35 |     49137    |    73171
        4  | 16:15.47 |  6:21.48 |     73172    |   101794
        5  | 22:37.20 |  4:47.02 |    101795    |   123321
        6  | 27:24.22 |  7:21.10 |    123322    |   156406
        7  | 34:45.32 |  4:21.00 |    156407    |   175981
        8  | 39:06.32 |  5:16.25 |    175982    |   199706
        9  | 44:22.57 |  4:18.48 |    199707    |   219104
       10  | 48:41.30 |  5:29.65 |    219105    |   243844
       11  | 54:11.20 |  4:09.42 |    243845    |   262561
       12  | 58:20.62 |  5:50.30 |    262562    |   288841

Range status and errors

Selected range

     Filename C:\extracts\The Quincy Jones & Sammy Nestico Orchestra - Basie & Beyond\The Quincy Jones - Sammy Nestico Orchestra - Basie & Beyond.wav

     Peak level 98.8 %
     Range quality 100.0 %
     Test CRC 544EB84A
     Copy CRC 544EB84A
     Copy OK

No errors occurred

AccurateRip summary

Track  1  accurately ripped (confidence 6)  [36E9701D]
Track  2  accurately ripped (confidence 6)  [C3E4D969]
Track  3  accurately ripped (confidence 6)  [9FCFC398]
Track  4  accurately ripped (confidence 6)  [1CC7751E]
Track  5  accurately ripped (confidence 6)  [6209239C]
Track  6  accurately ripped (confidence 6)  [58B241B6]
Track  7  accurately ripped (confidence 6)  [A46520FC]
Track  8  accurately ripped (confidence 6)  [A32A367F]
Track  9  accurately ripped (confidence 6)  [3D392947]
Track 10  accurately ripped (confidence 6)  [3C34E1C8]
Track 11  accurately ripped (confidence 6)  [D72628C1]
Track 12  accurately ripped (confidence 6)  [0C3F6CAD]

All tracks accurately ripped

End of status report
Содержание индексной карты (.CUE)
REM GENRE Jazz
REM DATE 2000
REM DISCID B10F0B0C
REM COMMENT "ExactAudioCopy v0.99pb5"
PERFORMER "The Quincy Jones - Sammy Nestico Orchestra"
TITLE "Basie & Beyond"
FILE "Quincy Jones - Sammy Nestico - Basie & Beyond.flac" WAVE
  TRACK 01 AUDIO
    TITLE "Ya Gotta Try... Harder!"
    PERFORMER "The Quincy Jones - Sammy Nestico Orchestra"
    INDEX 01 00:00:00
  TRACK 02 AUDIO
    TITLE "Belly Roll"
    PERFORMER "The Quincy Jones - Sammy Nestico Orchestra"
    INDEX 00 05:39:50
    INDEX 01 05:39:60
  TRACK 03 AUDIO
    TITLE "Grace"
    PERFORMER "The Quincy Jones - Sammy Nestico Orchestra"
    INDEX 01 10:55:12
  TRACK 04 AUDIO
    TITLE "The Joy Of Cookin'"
    PERFORMER "The Quincy Jones - Sammy Nestico Orchestra"
    INDEX 00 16:14:57
    INDEX 01 16:15:47
  TRACK 05 AUDIO
    TITLE "Quintessence"
    PERFORMER "The Quincy Jones - Sammy Nestico Orchestra"
    INDEX 01 22:37:20
  TRACK 06 AUDIO
    TITLE "How Sweet It Is"
    PERFORMER "The Quincy Jones - Sammy Nestico Orchestra"
    INDEX 00 27:24:10
    INDEX 01 27:24:22
  TRACK 07 AUDIO
    TITLE "Hard Sock Dance"
    PERFORMER "The Quincy Jones - Sammy Nestico Orchestra"
    INDEX 01 34:45:32
  TRACK 08 AUDIO
    TITLE "The Witching Hour"
    PERFORMER "The Quincy Jones - Sammy Nestico Orchestra"
    INDEX 01 39:06:32
  TRACK 09 AUDIO
    TITLE "For Lena And Lennie"
    PERFORMER "The Quincy Jones - Sammy Nestico Orchestra"
    INDEX 01 44:22:57
  TRACK 10 AUDIO
    TITLE "No Time Like The Present"
    PERFORMER "The Quincy Jones - Sammy Nestico Orchestra"
    INDEX 01 48:41:30
  TRACK 11 AUDIO
    TITLE "Lisette"
    PERFORMER "The Quincy Jones - Sammy Nestico Orchestra"
    INDEX 01 54:11:20
  TRACK 12 AUDIO
    TITLE "Out Of The Night"
    PERFORMER "The Quincy Jones - Sammy Nestico Orchestra"
    INDEX 00 58:20:30
    INDEX 01 58:20:62
Приватный:
Нет (DHT включён)
Размер:
467.10 Мб (489,785,407 байт) » файлов: 24
Участники:
0 раздают, 0 качают (0 участников всего)
Внешние участники:
1 раздают, 0 качают (1 участников всего) [ Обновить ]
15:15
96
RSS
Нет комментариев. Ваш будет первым!