Поиск

2000 Gene Krupa & His Orchestra - Let Me Off Uptown {Drive Archive, Trama T050, 187-2} [CD]

2000 Gene Krupa & His Orchestra - Let Me Off Uptown {Drive Archive, Trama T050, 187-2} [CD]
Треклист:

01. Disc Jockey Jump (3:06)
02. Yesterdays (3:20)
03. Lemon Drop (3:26)
04. After You've Gone (3:32)
05. Pennies from Heaven (3:51)
06. Let Me Off Uptown (3:05)
07. Gee Bop (3:03)
08. I Should Have Kept On Dreaming (3:21)
09. Gene's Boogie (2:53)
10. Sometime's I'm Happy (3:06)
11. Birdhouse (3:06)
12. Samaba (3:53)

Состав:
  • Gene Krupa — drums
  • Roy Eldridge — trumpet, vocals (#6)
  • Don Fagerquist, John Bello, Ray Triscari, Gordon Boswell — trumpet
  • Frank Rosolino — trombone, vocals (#3,5)
  • Walt Robertson, Herb Randel, Frank Rehak — trombone
  • Kenny Pinson, Lenny Hambro — alto saxophone
  • Buddy Wise, Carl Friend — tenor saxophone
  • Dale Keever — baritone saxophone
  • Joe Cohen — piano
  • Ralph Blaze — guitar
  • Don Simpson — bass
  • Hernando Bravo, Ramon Rivera — percussion
  • Dolores Hawkins — vocals (#6,9)

Recorded in Hollywood, CA on April 5-12, 1949.
Restoration and mastering by Duff Tatian at FDS Labs/Quad Deck Digital, Los Angeles, CA.

Жанр: Big Band, Dixieland, Swing
Носитель: CD
Страна-производитель диска (релиза): Бразилия
Год издания: 2000
Издатель (лейбл): Drive Archive/Trama
Номер по каталогу: T050/187-2
Аудиокодек: FLAC (*.flac)
Тип рипа: tracks+.cue
Битрейт аудио: lossless
Продолжительность: 00:39:42
Источник: miguelito
Наличие сканов в содержимом раздачи: нет

Лог создания рипа
Exact Audio Copy V1.3 from 2. September 2016

EAC extraction logfile from 7. February 2019, 19:04

Gene Krupa & His Orchestra / Let me off uptown

Used drive  : ASUS    DRW-24F1MT   b   Adapter: 1  ID: 0

Read mode               : Secure
Utilize accurate stream : Yes
Defeat audio cache      : Yes
Make use of C2 pointers : No

Read offset correction                      : 6
Overread into Lead-In and Lead-Out          : No
Fill up missing offset samples with silence : Yes
Delete leading and trailing silent blocks   : No
Null samples used in CRC calculations       : Yes
Used interface                              : Native Win32 interface for Win NT & 2000
Gap handling                                : Appended to previous track

Used output format              : User Defined Encoder
Selected bitrate                : 1024 kBit/s
Quality                         : High
Add ID3 tag                     : No
Command line compressor         : C:\Program Files\Exact Audio Copy\FLAC\FLAC.EXE
Additional command line options : -8 -e -p -V -T "ARTIST=%artist%" -T "TITLE=%title%" -T "ALBUM=%albumtitle%" -T "DATE=%year%" -T "TRACKNUMBER=%tracknr%" -T "GENRE=%genre%" -T "PERFORMER=%albuminterpret%" -T "COMPOSER=%composer%" %haslyrics%--tag-from-file=LYRICS="%lyricsfile%"%haslyrics% -T "ALBUMARTIST=%albumartist%" -T "DISCNUMBER=%cdnumber%" -T "TOTALDISCS=%totalcds%" -T "TOTALTRACKS=%numtracks%" -T "COMMENT=%comment%" %source% -o %dest%

TOC of the extracted CD

     Track |   Start  |  Length  | Start sector | End sector
    ---------------------------------------------------------
        1  |  0:00.00 |  3:06.15 |         0    |    13964
        2  |  3:06.15 |  3:19.45 |     13965    |    28934
        3  |  6:25.60 |  3:25.72 |     28935    |    44381
        4  |  9:51.57 |  3:31.65 |     44382    |    60271
        5  | 13:23.47 |  3:51.18 |     60272    |    77614
        6  | 17:14.65 |  3:05.00 |     77615    |    91489
        7  | 20:19.65 |  3:03.02 |     91490    |   105216
        8  | 23:22.67 |  3:20.50 |    105217    |   120266
        9  | 26:43.42 |  2:53.08 |    120267    |   133249
       10  | 29:36.50 |  3:05.72 |    133250    |   147196
       11  | 32:42.47 |  3:05.45 |    147197    |   161116
       12  | 35:48.17 |  3:53.13 |    161117    |   178604

Track  1

     Filename F:\Gene Krupa & His Orchestra - Let me off uptown (2000){Drive Archive, Trama T050_187-2}[FLAC]\01 Disc jockey jump.wav

     Pre-gap length  0:00:02.00

     Peak level 79.2 %
     Extraction speed 1.0 X
     Track quality 100.0 %
     Test CRC 0CEB0A9E
     Copy CRC 0CEB0A9E
     Track not present in AccurateRip database
     Copy OK

Track  2

     Filename F:\Gene Krupa & His Orchestra - Let me off uptown (2000){Drive Archive, Trama T050_187-2}[FLAC]\02 Yesterdays.wav

     Pre-gap length  0:00:02.43

     Peak level 76.6 %
     Extraction speed 1.1 X
     Track quality 100.0 %
     Test CRC 56DB9B96
     Copy CRC 56DB9B96
     Track not present in AccurateRip database
     Copy OK

Track  3

     Filename F:\Gene Krupa & His Orchestra - Let me off uptown (2000){Drive Archive, Trama T050_187-2}[FLAC]\03 Lemon drop.wav

     Pre-gap length  0:00:02.45

     Peak level 99.2 %
     Extraction speed 1.2 X
     Track quality 100.0 %
     Test CRC F391BBD3
     Copy CRC F391BBD3
     Track not present in AccurateRip database
     Copy OK

Track  4

     Filename F:\Gene Krupa & His Orchestra - Let me off uptown (2000){Drive Archive, Trama T050_187-2}[FLAC]\04 After you've gone.wav

     Pre-gap length  0:00:02.30

     Peak level 80.8 %
     Extraction speed 1.3 X
     Track quality 100.0 %
     Test CRC 4766FDE0
     Copy CRC 4766FDE0
     Track not present in AccurateRip database
     Copy OK

Track  5

     Filename F:\Gene Krupa & His Orchestra - Let me off uptown (2000){Drive Archive, Trama T050_187-2}[FLAC]\05 Pennies from heaven.wav

     Pre-gap length  0:00:02.35

     Peak level 99.0 %
     Extraction speed 1.4 X
     Track quality 100.0 %
     Test CRC 68BAE62B
     Copy CRC 68BAE62B
     Track not present in AccurateRip database
     Copy OK

Track  6

     Filename F:\Gene Krupa & His Orchestra - Let me off uptown (2000){Drive Archive, Trama T050_187-2}[FLAC]\06 Let me off uptown.wav

     Pre-gap length  0:00:02.40

     Peak level 85.8 %
     Extraction speed 1.4 X
     Track quality 100.0 %
     Test CRC C78F65CF
     Copy CRC C78F65CF
     Track not present in AccurateRip database
     Copy OK

Track  7

     Filename F:\Gene Krupa & His Orchestra - Let me off uptown (2000){Drive Archive, Trama T050_187-2}[FLAC]\07 Gee bop.wav

     Pre-gap length  0:00:02.40

     Peak level 82.5 %
     Extraction speed 1.5 X
     Track quality 100.0 %
     Test CRC 8E881EB4
     Copy CRC 8E881EB4
     Track not present in AccurateRip database
     Copy OK

Track  8

     Filename F:\Gene Krupa & His Orchestra - Let me off uptown (2000){Drive Archive, Trama T050_187-2}[FLAC]\08 I should have kept on dreaming.wav

     Pre-gap length  0:00:02.37

     Peak level 74.4 %
     Extraction speed 1.5 X
     Track quality 100.0 %
     Test CRC D1C06CC0
     Copy CRC D1C06CC0
     Track not present in AccurateRip database
     Copy OK

Track  9

     Filename F:\Gene Krupa & His Orchestra - Let me off uptown (2000){Drive Archive, Trama T050_187-2}[FLAC]\09 Gene's boogie.wav

     Pre-gap length  0:00:02.40

     Peak level 83.6 %
     Extraction speed 1.6 X
     Track quality 100.0 %
     Test CRC D1BD2792
     Copy CRC D1BD2792
     Track not present in AccurateRip database
     Copy OK

Track 10

     Filename F:\Gene Krupa & His Orchestra - Let me off uptown (2000){Drive Archive, Trama T050_187-2}[FLAC]\10 Sometimes's i'm happy.wav

     Pre-gap length  0:00:02.33

     Peak level 87.7 %
     Extraction speed 1.6 X
     Track quality 100.0 %
     Test CRC C6AD880F
     Copy CRC C6AD880F
     Track not present in AccurateRip database
     Copy OK

Track 11

     Filename F:\Gene Krupa & His Orchestra - Let me off uptown (2000){Drive Archive, Trama T050_187-2}[FLAC]\11 Birdhouse.wav

     Pre-gap length  0:00:02.42

     Peak level 98.7 %
     Extraction speed 1.4 X
     Track quality 99.9 %
     Test CRC 1A0E7C0D
     Copy CRC 1A0E7C0D
     Track not present in AccurateRip database
     Copy OK

Track 12

     Filename F:\Gene Krupa & His Orchestra - Let me off uptown (2000){Drive Archive, Trama T050_187-2}[FLAC]\12 Samaba.wav

     Pre-gap length  0:00:02.52

     Peak level 99.9 %
     Extraction speed 1.8 X
     Track quality 100.0 %
     Test CRC FC9B8B6D
     Copy CRC FC9B8B6D
     Track not present in AccurateRip database
     Copy OK

None of the tracks are present in the AccurateRip database

No errors occurred

End of status report

==== Log checksum A6D8E8874F2718BB2A4F798313F19A7813B8DE91AC4F4FAF8A225A67F2B183F2 ====
Содержание индексной карты (.CUE)
REM GENRE Jazz
REM DATE 1996
REM DISCID 9B094D0C
REM COMMENT "ExactAudioCopy v1.3"
PERFORMER "Gene Krupa"
TITLE "Let Me Off Uptown"
FILE "01 - Disc Jockey Jump.wav" WAVE
  TRACK 01 AUDIO
    TITLE "Disc Jockey Jump"
    PERFORMER "Gene Krupa"
    INDEX 01 00:00:00
  TRACK 02 AUDIO
    TITLE "Yesterdays"
    PERFORMER "Gene Krupa"
    INDEX 00 03:03:47
FILE "02 - Yesterdays.wav" WAVE
    INDEX 01 00:00:00
  TRACK 03 AUDIO
    TITLE "Lemon Drop"
    PERFORMER "Gene Krupa"
    INDEX 00 03:17:00
FILE "03 - Lemon Drop.wav" WAVE
    INDEX 01 00:00:00
  TRACK 04 AUDIO
    TITLE "After You've Gone"
    PERFORMER "Gene Krupa"
    INDEX 00 03:23:42
FILE "04 - After You've Gone.wav" WAVE
    INDEX 01 00:00:00
  TRACK 05 AUDIO
    TITLE "Pennies from Heaven"
    PERFORMER "Gene Krupa"
    INDEX 00 03:29:30
FILE "05 - Pennies from Heaven.wav" WAVE
    INDEX 01 00:00:00
  TRACK 06 AUDIO
    TITLE "Let Me Off Uptown"
    PERFORMER "Gene Krupa"
    INDEX 00 03:48:53
FILE "06 - Let Me Off Uptown.wav" WAVE
    INDEX 01 00:00:00
  TRACK 07 AUDIO
    TITLE "Gee Bop"
    PERFORMER "Gene Krupa"
    INDEX 00 03:02:35
FILE "07 - Gee Bop.wav" WAVE
    INDEX 01 00:00:00
  TRACK 08 AUDIO
    TITLE "I Should Have Kept On Dreaming"
    PERFORMER "Gene Krupa"
    INDEX 00 03:00:40
FILE "08 - I Should Have Kept On Dreaming.wav" WAVE
    INDEX 01 00:00:00
  TRACK 09 AUDIO
    TITLE "Gene's Boogie"
    PERFORMER "Gene Krupa"
    INDEX 00 03:18:10
FILE "09 - Gene's Boogie.wav" WAVE
    INDEX 01 00:00:00
  TRACK 10 AUDIO
    TITLE "Sometime's I'm Happy"
    PERFORMER "Gene Krupa"
    INDEX 00 02:50:50
FILE "10 - Sometime's I'm Happy.wav" WAVE
    INDEX 01 00:00:00
  TRACK 11 AUDIO
    TITLE "Birdhouse"
    PERFORMER "Gene Krupa"
    INDEX 00 03:03:30
FILE "11 - Birdhouse.wav" WAVE
    INDEX 01 00:00:00
  TRACK 12 AUDIO
    TITLE "Samaba"
    PERFORMER "Gene Krupa"
    INDEX 00 03:02:68
FILE "12 - Samaba.wav" WAVE
    INDEX 01 00:00:00
Скриншот спектра частот
2000 Gene Krupa & His Orchestra - Let Me Off Uptown {Drive Archive, Trama T050, 187-2} [CD] 02000 Gene Krupa & His Orchestra - Let Me Off Uptown {Drive Archive, Trama T050, 187-2} [CD] 1
22:08
661
Нет комментариев. Ваш будет первым!