Поиск

2000 Donny McCaslin - Seen From Above {Arabesque AJ0151} [CD]

2000 Donny McCaslin - Seen From Above {Arabesque AJ0151} [CD]
Стили:
Страна-производитель диска (релиза):
USA
Дата записи диска:
15-16 июня 1999
Место записи:
Sear Sound, New York
Дата издания диска:
2000
Издатель (лейбл):
Номер по каталогу:
AJ0151
Носитель:
CD
Аудиокодек:
FLAC (*.flac)
Тип рипа:
tracks+.cue
Битрейт аудио:
lossless
Время звучания:
58:32
Релизёр (источник):
What.CD
Треклист:

01. Manresa (McCaslin) - 6:35
02. Seen from Above (McCaslin) - 6:52
03. Second Line Sally (McCaslin) - 5:09
04. These Were Palaces (McCaslin) - 5:39
05. Mick Gee (McCaslin) - 6:50
06. Strange Pilgrim (McCaslin) - 5:54
07. Going to the Territory (McCaslin) - 7:44
08. Frontiers (McCaslin) - 6:44
09. September Song (Anderson-Weill) - 7:05

Лог создания рипа
Exact Audio Copy V1.1 from 23. June 2015

EAC extraction logfile from 17. August 2015, 21:50

Donny McCaslin / Seen From Above

Used drive  : hp      DVD-RAM GH40L   Adapter: 1  ID: 0

Read mode               : Secure
Utilize accurate stream : Yes
Defeat audio cache      : Yes
Make use of C2 pointers : No

Read offset correction                      : 667
Overread into Lead-In and Lead-Out          : No
Fill up missing offset samples with silence : Yes
Delete leading and trailing silent blocks   : No
Null samples used in CRC calculations       : Yes
Used interface                              : Native Win32 interface for Win NT & 2000
Gap handling                                : Appended to previous track

Used output format              : User Defined Encoder
Selected bitrate                : 1024 kBit/s
Quality                         : High
Add ID3 tag                     : No
Command line compressor         : C:\Program Files (x86)\Exact Audio Copy\Flac\flac.exe
Additional command line options : -8 -V -T "ARTIST=%artist%" -T "TITLE=%title%" -T "ALBUM=%albumtitle%" -T "DATE=%year%" -T "TRACKNUMBER=%tracknr%" -T "GENRE=%genre%" -T "PERFORMER=%albuminterpret%" -T "COMPOSER=%composer%" %haslyrics%--tag-from-file=LYRICS="%lyricsfile%"%haslyrics% -T "ALBUMARTIST=%albumartist%" -T "DISCNUMBER=%cdnumber%" -T "TOTALDISCS=%totalcds%" -T "TOTALTRACKS=%numtracks%" -T "COMMENT=%comment%" %source% -o %dest%

TOC of the extracted CD

     Track |   Start  |  Length  | Start sector | End sector
    ---------------------------------------------------------
        1  |  0:00.00 |  6:34.67 |         0    |    29616
        2  |  6:34.67 |  6:51.73 |     29617    |    60514
        3  | 13:26.65 |  5:08.50 |     60515    |    83664
        4  | 18:35.40 |  5:38.67 |     83665    |   109081
        5  | 24:14.32 |  6:49.68 |    109082    |   139824
        6  | 31:04.25 |  5:53.67 |    139825    |   166366
        7  | 36:58.17 |  7:43.53 |    166367    |   201144
        8  | 44:41.70 |  6:44.30 |    201145    |   231474
        9  | 51:26.25 |  7:05.30 |    231475    |   263379

Track  1

     Filename L:\Ripping\EAC Rip\Donny McCaslin - Seen From Above (2000) [FLAC]\01 Manresa.wav

     Pre-gap length  0:00:02.00

     Peak level 100.0 %
     Extraction speed 1.8 X
     Track quality 100.0 %
     Test CRC BA5D4FED
     Copy CRC BA5D4FED
     Cannot be verified as accurate (confidence 1)  [9680AB18], AccurateRip returned [3117DED7]  (AR v2)
     Copy OK

Track  2

     Filename L:\Ripping\EAC Rip\Donny McCaslin - Seen From Above (2000) [FLAC]\02 Seen From Above.wav

     Pre-gap length  0:00:02.66

     Peak level 83.9 %
     Extraction speed 2.1 X
     Track quality 100.0 %
     Test CRC 48C60E7E
     Copy CRC 48C60E7E
     Cannot be verified as accurate (confidence 1)  [7C3CEFEE], AccurateRip returned [831B739D]  (AR v2)
     Copy OK

Track  3

     Filename L:\Ripping\EAC Rip\Donny McCaslin - Seen From Above (2000) [FLAC]\03 Second Line Sally.wav

     Pre-gap length  0:00:03.60

     Peak level 99.9 %
     Extraction speed 2.3 X
     Track quality 100.0 %
     Test CRC 2D457654
     Copy CRC 2D457654
     Cannot be verified as accurate (confidence 1)  [E538CACC], AccurateRip returned [EB94FBFF]  (AR v2)
     Copy OK

Track  4

     Filename L:\Ripping\EAC Rip\Donny McCaslin - Seen From Above (2000) [FLAC]\04 These Were Palaces.wav

     Pre-gap length  0:00:00.93

     Peak level 100.0 %
     Extraction speed 2.5 X
     Track quality 100.0 %
     Test CRC 008C0E86
     Copy CRC 008C0E86
     Cannot be verified as accurate (confidence 1)  [727554C8], AccurateRip returned [51902F1D]  (AR v2)
     Copy OK

Track  5

     Filename L:\Ripping\EAC Rip\Donny McCaslin - Seen From Above (2000) [FLAC]\05 Mick Gee.wav

     Peak level 97.2 %
     Extraction speed 2.9 X
     Track quality 100.0 %
     Test CRC 1A6B9AE0
     Copy CRC 1A6B9AE0
     Cannot be verified as accurate (confidence 1)  [C794989C], AccurateRip returned [A0814A58]  (AR v2)
     Copy OK

Track  6

     Filename L:\Ripping\EAC Rip\Donny McCaslin - Seen From Above (2000) [FLAC]\06 Strange Pilgrim.wav

     Pre-gap length  0:00:01.64

     Peak level 98.9 %
     Extraction speed 2.6 X
     Track quality 99.9 %
     Test CRC 3EE7754B
     Copy CRC 3EE7754B
     Cannot be verified as accurate (confidence 1)  [443753D5], AccurateRip returned [B038356E]  (AR v2)
     Copy OK

Track  7

     Filename L:\Ripping\EAC Rip\Donny McCaslin - Seen From Above (2000) [FLAC]\07 Going To The Territory.wav

     Pre-gap length  0:00:02.36

     Peak level 100.0 %
     Extraction speed 3.3 X
     Track quality 100.0 %
     Test CRC 988F8ACB
     Copy CRC 988F8ACB
     Cannot be verified as accurate (confidence 1)  [C1696BD4], AccurateRip returned [E6D610A8]  (AR v2)
     Copy OK

Track  8

     Filename L:\Ripping\EAC Rip\Donny McCaslin - Seen From Above (2000) [FLAC]\08 Frontiers.wav

     Pre-gap length  0:00:02.80

     Peak level 100.0 %
     Extraction speed 3.1 X
     Track quality 99.9 %
     Test CRC E62D6AD4
     Copy CRC E62D6AD4
     Cannot be verified as accurate (confidence 1)  [7996BAAB], AccurateRip returned [F4E9A73E]  (AR v2)
     Copy OK

Track  9

     Filename L:\Ripping\EAC Rip\Donny McCaslin - Seen From Above (2000) [FLAC]\09 September Song.wav

     Peak level 42.1 %
     Extraction speed 3.4 X
     Track quality 100.0 %
     Test CRC 380DB8F6
     Copy CRC 380DB8F6
     Cannot be verified as accurate (confidence 1)  [374C0E4B], AccurateRip returned [FF462E78]  (AR v2)
     Copy OK

No tracks could be verified as accurate
You may have a different pressing from the one(s) in the database

No errors occurred

End of status report

---- CUETools DB Plugin V2.1.6

[CTDB TOCID: w8JyxRAWv51GpFCE.WK_4cgcvIs-] found
Submit result: w8JyxRAWv51GpFCE.WK_4cgcvIs- has been confirmed
Track | CTDB Status
  1   | (3/3) Accurately ripped
  2   | (3/3) Accurately ripped
  3   | (3/3) Accurately ripped
  4   | (3/3) Accurately ripped
  5   | (3/3) Accurately ripped
  6   | (3/3) Accurately ripped
  7   | (3/3) Accurately ripped
  8   | (3/3) Accurately ripped
  9   | (3/3) Accurately ripped

==== Log checksum E7E61982E6C66CC98B50619388D067F794CD48AB27477E523E1859270CFF012A ====
Содержание индексной карты (.CUE)
REM GENRE Jazz
REM DATE 2000
REM DISCID 7F0DB709
REM COMMENT "ExactAudioCopy v1.1"
PERFORMER "Donny McCaslin"
TITLE "Seen from Above"
FILE "01 - Manresa.wav" WAVE
  TRACK 01 AUDIO
    TITLE "Manresa"
    PERFORMER "Donny McCaslin"
    INDEX 01 00:00:00
  TRACK 02 AUDIO
    TITLE "Seen from Above"
    PERFORMER "Donny McCaslin"
    INDEX 00 06:32:17
FILE "02 - Seen from Above.wav" WAVE
    INDEX 01 00:00:00
  TRACK 03 AUDIO
    TITLE "Second Line Sally"
    PERFORMER "Donny McCaslin"
    INDEX 00 06:48:28
FILE "03 - Second Line Sally.wav" WAVE
    INDEX 01 00:00:00
  TRACK 04 AUDIO
    TITLE "These Were Palaces"
    PERFORMER "Donny McCaslin"
    INDEX 00 05:07:55
FILE "04 - These Were Palaces.wav" WAVE
    INDEX 01 00:00:00
FILE "05 - Mick Gee.wav" WAVE
  TRACK 05 AUDIO
    TITLE "Mick Gee"
    PERFORMER "Donny McCaslin"
    INDEX 01 00:00:00
  TRACK 06 AUDIO
    TITLE "Strange Pilgrim"
    PERFORMER "Donny McCaslin"
    INDEX 00 06:48:20
FILE "06 - Strange Pilgrim.wav" WAVE
    INDEX 01 00:00:00
  TRACK 07 AUDIO
    TITLE "Going to the Territory"
    PERFORMER "Donny McCaslin"
    INDEX 00 05:51:40
FILE "07 - Going to the Territory.wav" WAVE
    INDEX 01 00:00:00
  TRACK 08 AUDIO
    TITLE "Frontiers"
    PERFORMER "Donny McCaslin"
    INDEX 00 07:40:68
FILE "08 - Frontiers.wav" WAVE
    INDEX 01 00:00:00
FILE "09 - September Song.wav" WAVE
  TRACK 09 AUDIO
    TITLE "September Song"
    PERFORMER "Donny McCaslin"
    INDEX 01 00:00:00
Лог проверки качества
[CUETools log; Date: 30.09.2018 21:34:19; Version: 2.1.5]
[CTDB TOCID: w8JyxRAWv51GpFCE.WK_4cgcvIs-] found.
Track | CTDB Status
  1   | (6/6) Accurately ripped
  2   | (6/6) Accurately ripped
  3   | (6/6) Accurately ripped
  4   | (6/6) Accurately ripped
  5   | (6/6) Accurately ripped
  6   | (6/6) Accurately ripped
  7   | (6/6) Accurately ripped
  8   | (6/6) Accurately ripped
  9   | (6/6) Accurately ripped
[AccurateRip ID: 00139bcf-0090346c-7f0db709] found.
Track   [  CRC   |   V2   ] Status
 01     [39adb0f8|9680ab18] (0+0/2) No match
 02     [42b7b21a|7c3cefee] (0+0/2) No match
 03     [d9aa84ad|e538cacc] (0+0/2) No match
 04     [2cf82f37|727554c8] (0+0/2) No match
 05     [7e24eb1d|c794989c] (0+0/2) No match
 06     [21787e0e|443753d5] (0+0/2) No match
 07     [688b0531|c1696bd4] (0+0/2) No match
 08     [43d34ec2|7996baab] (0+0/2) No match
 09     [cde5a229|374c0e4b] (0+0/2) No match
Offsetted by 71:
 01     [3117ded7] (1/2) Accurately ripped
 02     [831b739d] (1/2) Accurately ripped
 03     [eb94fbff] (1/2) Accurately ripped
 04     [51902f1d] (1/2) Accurately ripped
 05     [a0814a58] (1/2) Accurately ripped
 06     [b038356e] (1/2) Accurately ripped
 07     [e6d610a8] (1/2) Accurately ripped
 08     [f4e9a73e] (1/2) Accurately ripped
 09     [ff462e78] (1/2) Accurately ripped

Track Peak [ CRC32  ] [W/O NULL] [  LOG   ]
 --  100,0 [9C10ADC9] [7761DCE6]
 01  100,0 [BA5D4FED] [C8F9D00E]   CRC32
 02   83,9 [48C60E7E] [CAB3F4BA]   CRC32
 03   99,9 [2D457654] [371A5CD3]   CRC32
 04  100,0 [008C0E86] [8F3825AC]   CRC32
 05   97,2 [1A6B9AE0] [1BDFE22A]   CRC32
 06   98,9 [3EE7754B] [48B482F5]   CRC32
 07  100,0 [988F8ACB] [E5FD4236]   CRC32
 08  100,0 [E62D6AD4] [00C7D724]   CRC32
 09   42,1 [380DB8F6] [E20CE232]   CRC32
Приватный:
Нет (DHT включён)
Размер:
313.28 Мб (328,500,410 байт) » файлов: 20
Участники:
13 раздают, 0 качают (13 участников всего)
Внешние участники:
1 раздают, 0 качают (1 участников всего) [ Обновить ]
Никого нет на раздаче - пишите личное сообщение M0p94ok
No seeders - write personal message to M0p94ok
17:24
65
Нет комментариев. Ваш будет первым!