Поиск

2000 Baden Powell - A Musica Brasileira Deste Seculo Por Seus Autores e Interpretes [CD]

2000 Baden Powell - A Musica Brasileira Deste Seculo Por Seus Autores e Interpretes [CD]
Треклист:
Baden Powell
A Musica Brasileira Deste Seculo
Por Seus Autores e Interpretes
Originally recording from the Fundação Padre Ancheita for Programa Ensaio in 1991


.
Жанр: Bossa Nova, Brazilian Jazz, Guitar | Страна: Brazil
Дата выпуска альбома / диска: 2000 | Производитель диска: SESC, Brazil
Аудио кодек: FLAC | Тип рипа: tracks+.cue | Битрейт аудио: lossless
+ PNG art scans
Источник (релизёр): original CD, ripped by Flabber
Продолжительность: 60:39

~ TRACKLiST ~
01. Voltei (5:48)
02. Revendo o passado (5:14)
03. Naquele tempo (4:45)
04. Palhaco (3:28)
05. Minha saudade (1:44)
06. Rapaz de bem (2:27)
07. Samba triste (2:09)
08. Deixa (5:45)
09. Tem do (1:52)
10. O astronauta (5:23)
11. Samba em preludio (3:49)
12. Formosa (1:10)
13. Bocoche (3:08)
14. Canto de Yemanja (0:52)
15. Tristeza e solidao (1:31)
16. Canto de Ossanha (2:19)
17. Canto de capoeira (2:04)
18. Berimbau (0:32)
19. Lapinha (3:10)
20. Falei e disse (3:29)
.
 
EAC log
Exact Audio Copy V0.99 prebeta 5 from 4. May 2009
EAC extraction logfile from 26. January 2011, 0:07
Baden Powell / SESC Ensaio
Used drive  : PLEXTOR DVDR   PX-880SA   Adapter: 0  ID: 0
Read mode               : Secure
Utilize accurate stream : Yes
Defeat audio cache      : Yes
Make use of C2 pointers : No
Read offset correction                      : 6
Overread into Lead-In and Lead-Out          : No
Fill up missing offset samples with silence : Yes
Delete leading and trailing silent blocks   : No
Null samples used in CRC calculations       : Yes
Used interface                              : Native Win32 interface for Win NT & 2000
Gap handling                                : Appended to previous track
Used output format              : User Defined Encoder
Selected bitrate                : 768 kBit/s
Quality                         : High
Add ID3 tag                     : No
Command line compressor         : C:\Program Files (x86)\Exact Audio Copy\FLAC\FLAC.EXE
Additional command line options : -8 -V -T "ARTIST=%a" -T "TITLE=%t" -T "ALBUM=%g" -T "DATE=%y" -
T "TRACKNUMBER=%n" -T "TOTALTRACKS=%x" -T "GENRE=%m" -T "ALBUM ARTIST=%v" -T "ALBUMARTIST=%v" -
T "COMMENT=EAC V0.99 prebeta 5, Secure Mode, Test & Copy, Accurat
TOC of the extracted CD
     Track |   Start  |  Length  | Start sector | End sector
    ---------------------------------------------------------
        1  |  0:00.00 |  5:48.47 |         0    |    26146
        2  |  5:48.47 |  5:14.48 |     26147    |    49744
        3  | 11:03.20 |  4:45.55 |     49745    |    71174
        4  | 15:49.00 |  3:28.27 |     71175    |    86801
        5  | 19:17.27 |  1:44.65 |     86802    |    94666
        6  | 21:02.17 |  2:27.40 |     94667    |   105731
        7  | 23:29.57 |  2:09.63 |    105732    |   115469
        8  | 25:39.45 |  5:45.60 |    115470    |   141404
        9  | 31:25.30 |  1:52.15 |    141405    |   149819
       10  | 33:17.45 |  5:23.05 |    149820    |   174049
       11  | 38:40.50 |  3:49.22 |    174050    |   191246
       12  | 42:29.72 |  1:10.45 |    191247    |   196541
       13  | 43:40.42 |  3:08.53 |    196542    |   210694
       14  | 46:49.20 |  0:52.12 |    210695    |   214606
       15  | 47:41.32 |  1:31.00 |    214607    |   221431
       16  | 49:12.32 |  2:19.63 |    221432    |   231919
       17  | 51:32.20 |  2:04.57 |    231920    |   241276
       18  | 53:37.02 |  0:32.63 |    241277    |   243739
       19  | 54:09.65 |  3:10.05 |    243740    |   257994
       20  | 57:19.70 |  3:29.70 |    257995    |   273739
Track  1
     Filename D:\01 - Voltei.wav
     Pre-gap length  0:00:02.00
     Peak level 98.8 %
     Track quality 100.0 %
     Test CRC 37CF321D
     Copy CRC 37CF321D
     Track not present in AccurateRip database
     Copy OK
Track  2
     Filename D:\02 - Revendo o passado.wav
     Peak level 88.2 %
     Track quality 100.0 %
     Test CRC 659B1D4D
     Copy CRC 659B1D4D
     Track not present in AccurateRip database
     Copy OK
Track  3
     Filename D:\03 - Naquele tempo.wav
     Peak level 78.9 %
     Track quality 100.0 %
     Test CRC 194BFD4E
     Copy CRC 194BFD4E
     Track not present in AccurateRip database
     Copy OK
Track  4
     Filename D:\04 - Palhaco.wav
     Peak level 80.0 %
     Track quality 100.0 %
     Test CRC 52EED2A8
     Copy CRC 52EED2A8
     Track not present in AccurateRip database
     Copy OK
Track  5
     Filename D:\05 - Minha saudade.wav
     Peak level 79.5 %
     Track quality 100.0 %
     Test CRC 92E4FDAE
     Copy CRC 92E4FDAE
     Track not present in AccurateRip database
     Copy OK
Track  6
     Filename D:\06 - Rapaz de bem.wav
     Peak level 67.7 %
     Track quality 100.0 %
     Test CRC 1AF0AD27
     Copy CRC 1AF0AD27
     Track not present in AccurateRip database
     Copy OK
Track  7
     Filename D:\07 - Samba triste.wav
     Peak level 63.1 %
     Track quality 99.9 %
     Test CRC 462A5143
     Copy CRC 462A5143
     Track not present in AccurateRip database
     Copy OK
Track  8
     Filename D:\08 - Deixa.wav
     Peak level 76.6 %
     Track quality 100.0 %
     Test CRC 625D53F8
     Copy CRC 625D53F8
     Track not present in AccurateRip database
     Copy OK
Track  9
     Filename D:\09 - Tem do.wav
     Peak level 72.0 %
     Track quality 99.9 %
     Test CRC CF69A741
     Copy CRC CF69A741
     Track not present in AccurateRip database
     Copy OK
Track 10
     Filename D:\10 - O astronauta.wav
     Peak level 65.0 %
     Track quality 99.9 %
     Test CRC F60081AB
     Copy CRC F60081AB
     Track not present in AccurateRip database
     Copy OK
Track 11
     Filename D:\11 - Samba em preludio.wav
     Peak level 67.5 %
     Track quality 100.0 %
     Test CRC 1A2E1F42
     Copy CRC 1A2E1F42
     Track not present in AccurateRip database
     Copy OK
Track 12
     Filename D:\12 - Formosa.wav
     Peak level 63.7 %
     Track quality 100.0 %
     Test CRC 5A6EBCC3
     Copy CRC 5A6EBCC3
     Track not present in AccurateRip database
     Copy OK
Track 13
     Filename D:\13 - Bocoche.wav
     Peak level 61.9 %
     Track quality 100.0 %
     Test CRC 361B16C7
     Copy CRC 361B16C7
     Track not present in AccurateRip database
     Copy OK
Track 14
     Filename D:\14 - Canto de yemanja.wav
     Peak level 50.0 %
     Track quality 100.0 %
     Test CRC 15F26FC4
     Copy CRC 15F26FC4
     Track not present in AccurateRip database
     Copy OK
Track 15
     Filename D:\15 - Tristeza e solidao.wav
     Peak level 64.4 %
     Track quality 99.8 %
     Test CRC D219AC2A
     Copy CRC D219AC2A
     Track not present in AccurateRip database
     Copy OK
Track 16
     Filename D:\16 - Canto de ossanha.wav
     Peak level 55.0 %
     Track quality 100.0 %
     Test CRC 2E862706
     Copy CRC 2E862706
     Track not present in AccurateRip database
     Copy OK
Track 17
     Filename D:\17 - Canto de capoeira.wav
     Peak level 59.5 %
     Track quality 100.0 %
     Test CRC 711537A5
     Copy CRC 711537A5
     Track not present in AccurateRip database
     Copy OK
Track 18
     Filename D:\18 - Berimbau.wav
     Peak level 60.0 %
     Track quality 100.0 %
     Test CRC CA0E3721
     Copy CRC CA0E3721
     Track not present in AccurateRip database
     Copy OK
Track 19
     Filename D:\19 - Lapinha.wav
     Peak level 52.6 %
     Track quality 100.0 %
     Test CRC D641B302
     Copy CRC D641B302
     Track not present in AccurateRip database
     Copy OK
Track 20
     Filename D:\20 - Falei e disse.wav
     Peak level 57.8 %
     Track quality 100.0 %
     Test CRC 5665967B
     Copy CRC 5665967B
     Track not present in AccurateRip database
     Copy OK
None of the tracks are present in the AccurateRip database
No errors occurred
End of status report
 
 
*.cue
REM GENRE Samba
REM DATE 1990
REM DISCID 190E4114
REM COMMENT "ExactAudioCopy v0.99pb5"
PERFORMER "Baden Powell"
TITLE "SESC Ensaio"
FILE "01 - Voltei.wav" WAVE
  TRACK 01 AUDIO
    TITLE "Voltei"
    PERFORMER "Baden Powell"
    INDEX 01 00:00:00
FILE "02 - Revendo o passado.wav" WAVE
  TRACK 02 AUDIO
    TITLE "Revendo o passado"
    PERFORMER "Baden Powell"
    INDEX 01 00:00:00
FILE "03 - Naquele tempo.wav" WAVE
  TRACK 03 AUDIO
    TITLE "Naquele tempo"
    PERFORMER "Baden Powell"
    INDEX 01 00:00:00
FILE "04 - Palhaco.wav" WAVE
  TRACK 04 AUDIO
    TITLE "Palhaco"
    PERFORMER "Baden Powell"
    INDEX 01 00:00:00
FILE "05 - Minha saudade.wav" WAVE
  TRACK 05 AUDIO
    TITLE "Minha saudade"
    PERFORMER "Baden Powell"
    INDEX 01 00:00:00
FILE "06 - Rapaz de bem.wav" WAVE
  TRACK 06 AUDIO
    TITLE "Rapaz de bem"
    PERFORMER "Baden Powell"
    INDEX 01 00:00:00
FILE "07 - Samba triste.wav" WAVE
  TRACK 07 AUDIO
    TITLE "Samba triste"
    PERFORMER "Baden Powell"
    INDEX 01 00:00:00
FILE "08 - Deixa.wav" WAVE
  TRACK 08 AUDIO
    TITLE "Deixa"
    PERFORMER "Baden Powell"
    INDEX 01 00:00:00
FILE "09 - Tem do.wav" WAVE
  TRACK 09 AUDIO
    TITLE "Tem do"
    PERFORMER "Baden Powell"
    INDEX 01 00:00:00
FILE "10 - O astronauta.wav" WAVE
  TRACK 10 AUDIO
    TITLE "O astronauta"
    PERFORMER "Baden Powell"
    INDEX 01 00:00:00
FILE "11 - Samba em preludio.wav" WAVE
  TRACK 11 AUDIO
    TITLE "Samba em preludio"
    PERFORMER "Baden Powell"
    INDEX 01 00:00:00
FILE "12 - Formosa.wav" WAVE
  TRACK 12 AUDIO
    TITLE "Formosa"
    PERFORMER "Baden Powell"
    INDEX 01 00:00:00
FILE "13 - Bocoche.wav" WAVE
  TRACK 13 AUDIO
    TITLE "Bocoche"
    PERFORMER "Baden Powell"
    INDEX 01 00:00:00
FILE "14 - Canto de yemanja.wav" WAVE
  TRACK 14 AUDIO
    TITLE "Canto de yemanja"
    PERFORMER "Baden Powell"
    INDEX 01 00:00:00
FILE "15 - Tristeza e solidao.wav" WAVE
  TRACK 15 AUDIO
    TITLE "Tristeza e solidao"
    PERFORMER "Baden Powell"
    INDEX 01 00:00:00
FILE "16 - Canto de ossanha.wav" WAVE
  TRACK 16 AUDIO
    TITLE "Canto de ossanha"
    PERFORMER "Baden Powell"
    INDEX 01 00:00:00
FILE "17 - Canto de capoeira.wav" WAVE
  TRACK 17 AUDIO
    TITLE "Canto de capoeira"
    PERFORMER "Baden Powell"
    INDEX 01 00:00:00
FILE "18 - Berimbau.wav" WAVE
  TRACK 18 AUDIO
    TITLE "Berimbau"
    PERFORMER "Baden Powell"
    INDEX 01 00:00:00
FILE "19 - Lapinha.wav" WAVE
  TRACK 19 AUDIO
    TITLE "Lapinha"
    PERFORMER "Baden Powell"
    INDEX 01 00:00:00
FILE "20 - Falei e disse.wav" WAVE
  TRACK 20 AUDIO
    TITLE "Falei e disse"
    PERFORMER "Baden Powell"
    INDEX 01 00:00:00
 
 
Audiochecker’s log
AUDIOCHECKER v2.0 beta (build 457) - by Dester - opdester@freemail.hu
~~~~~~~~~~~~~~~~~~~~~~~~~~~~~~~~~~
Started at: понедельник, 11. 04. 2011. - 12:45.50
20 files found
01 -===- F:\Baden Powell - A Musica Brasileira Deste Seculo 2000 [flac]\01 - Voltei.flac
  Extracted successfully
  Conclusion: this track is CDDA with probability 100%
  Tempfile successfully deleted.
02 -===- F:\Baden Powell - A Musica Brasileira Deste Seculo 2000 [flac]\02 - Revendo o passado.flac
  Extracted successfully
  Conclusion: this track is CDDA with probability 100%
  Tempfile successfully deleted.
03 -===- F:\Baden Powell - A Musica Brasileira Deste Seculo 2000 [flac]\03 - Naquele tempo.flac
  Extracted successfully
  Conclusion: this track is CDDA with probability 100%
  Tempfile successfully deleted.
04 -===- F:\Baden Powell - A Musica Brasileira Deste Seculo 2000 [flac]\04 - Palhaco.flac
  Extracted successfully
  Conclusion: this track is CDDA with probability 100%
  Tempfile successfully deleted.
05 -===- F:\Baden Powell - A Musica Brasileira Deste Seculo 2000 [flac]\05 - Minha saudade.flac
  Extracted successfully
  Conclusion: this track is CDDA with probability 100%
  Tempfile successfully deleted.
06 -===- F:\Baden Powell - A Musica Brasileira Deste Seculo 2000 [flac]\06 - Rapaz de bem.flac
  Extracted successfully
  Conclusion: this track is CDDA with probability 99%
  Tempfile successfully deleted.
07 -===- F:\Baden Powell - A Musica Brasileira Deste Seculo 2000 [flac]\07 - Samba triste.flac
  Extracted successfully
  Conclusion: this track is CDDA with probability 100%
  Tempfile successfully deleted.
08 -===- F:\Baden Powell - A Musica Brasileira Deste Seculo 2000 [flac]\08 - Deixa.flac
  Extracted successfully
  Conclusion: this track is CDDA with probability 100%
  Tempfile successfully deleted.
09 -===- F:\Baden Powell - A Musica Brasileira Deste Seculo 2000 [flac]\09 - Tem do.flac
  Extracted successfully
  Conclusion: this track is CDDA with probability 100%
  Tempfile successfully deleted.
10 -===- F:\Baden Powell - A Musica Brasileira Deste Seculo 2000 [flac]\10 - O astronauta.flac
  Extracted successfully
  Conclusion: this track is CDDA with probability 100%
  Tempfile successfully deleted.
11 -===- F:\Baden Powell - A Musica Brasileira Deste Seculo 2000 [flac]\11 - Samba em preludio.flac
  Extracted successfully
  Conclusion: this track is CDDA with probability 100%
  Tempfile successfully deleted.
12 -===- F:\Baden Powell - A Musica Brasileira Deste Seculo 2000 [flac]\12 - Formosa.flac
  Extracted successfully
  Conclusion: this track is CDDA with probability 99%
  Tempfile successfully deleted.
13 -===- F:\Baden Powell - A Musica Brasileira Deste Seculo 2000 [flac]\13 - Bocoche.flac
  Extracted successfully
  Conclusion: this track is CDDA with probability 99%
  Tempfile successfully deleted.
14 -===- F:\Baden Powell - A Musica Brasileira Deste Seculo 2000 [flac]\14 - Canto de yemanja.flac
  Extracted successfully
  Conclusion: this track is CDDA with probability 100%
  Tempfile successfully deleted.
15 -===- F:\Baden Powell - A Musica Brasileira Deste Seculo 2000 [flac]\15 - Tristeza e solidao.flac
  Extracted successfully
  Conclusion: this track is CDDA with probability 100%
  Tempfile successfully deleted.
16 -===- F:\Baden Powell - A Musica Brasileira Deste Seculo 2000 [flac]\16 - Canto de ossanha.flac
  Extracted successfully
  Conclusion: this track is CDDA with probability 100%
  Tempfile successfully deleted.
17 -===- F:\Baden Powell - A Musica Brasileira Deste Seculo 2000 [flac]\17 - Canto de capoeira.flac
  Extracted successfully
  Conclusion: this track is CDDA with probability 100%
  Tempfile successfully deleted.
18 -===- F:\Baden Powell - A Musica Brasileira Deste Seculo 2000 [flac]\18 - Berimbau.flac
  Extracted successfully
  Conclusion: this track is CDDA with probability 100%
  Tempfile successfully deleted.
19 -===- F:\Baden Powell - A Musica Brasileira Deste Seculo 2000 [flac]\19 - Lapinha.flac
  Extracted successfully
  Conclusion: this track is CDDA with probability 100%
  Tempfile successfully deleted.
20 -===- F:\Baden Powell - A Musica Brasileira Deste Seculo 2000 [flac]\20 - Falei e disse.flac
  Extracted successfully
  Conclusion: this track is CDDA with probability 94%
  Tempfile successfully deleted.
Finished at: понедельник, 11. 04. 2011. - 13:16.33 (operation time: 0:30.42)

mp3@320 kbps
Сидирую до первых 10-ти скачавших. Далее раздача поддерживается силами скачавших.
Скачали сами - дайте скачать другим. .
21:12
554
Нет комментариев. Ваш будет первым!