Поиск

1999 Wynton Marsalis - Standard Time, Vol. 4: Marsalis Plays Monk {Columbia CK 67503}

1999 Wynton Marsalis - Standard Time, Vol. 4: Marsalis Plays Monk {Columbia CK 67503}
Страна-производитель диска (релиза):
USA
Дата записи диска:
17 сентября 1993 - 4 октября 1994
Дата издания диска:
27 апреля 1999
Издатель (лейбл):
Номер по каталогу:
CK 67503
Носитель:
CD
Битрейт аудио:
lossless
Аудиокодек:
FLAC (*.flac)
Тип рипа:
tracks+.cue
Время звучания:
65:39
Наличие сканов:
  • нет
Релизёр (источник):
(OHATA
Треклист:
01. Thelonious 4:51
02. Evidence 4:26
03. We See 3:20
04. Monk's Mood 3:02
05. Worry Later 6:15
06. Four in One 5:49
07. Reflections 6:15
08. In Walked Monk 4:23
09. Hackensack 3:04
10. Let's Cool One 4:11
11. Brilliant Corners 4:50
12. Brake's Sake 6:59
13. Ugly Beauty 2:38
14. Green Chimneys 4:42
Состав:
  • Wynton Marsalis — trumpet
  • Walter Blanding, Victor Goines — tenor saxophone
  • Wessell Anderson — alto saxophone
  • Wycliffe Gordon — trombon
  • Eric Reed — piano
  • Reginald Veal, Ben Wolfe — bass
  • Herlin Riley — drums
  • Steven Epstein Producer
  • Victor Goines Guest Artist
  • M.G. Wilder Engineer
Лог создания рипа
<spoiler title="Лог создания рипа"><pre>Отчёт EAC об извлечении, выполненном 24. декабря 2007, 23:57 для диска:
Wynton Marsalis / Marsalis Plays Monk - Standard Time Vol. 4
Дисковод: TSSTcorpCDDVDW SH-S203D Adapter: 2 ID: 1
Режим чтения: Достоверный (C2: нет, Точный поток: да, Отключение кэша: да)
Коррекция смещения при чтении: 0
Способность читать области Lead-in и Lead-out : Нет
Выходной формат: Внутренние WAV-операции
44.100 Гц; 16 бит; стерео
Другие параметры:
Заполнение пропущенных сэмплов тишиной : Да
Удаление блоков с тишиной в начале и конце : Нет
Встроенный Win32-интерфейс для Win NT/2000
Трек 1
Имя файла D:\Music\RIP\(01) Thelonious - Wynton Marsalis.wav
Пиковый уровень 100.0 %
Качество трека 99.9 %
CRC теста 06327579
CRC копии 06327579
Копирование... OK
Трек 2
Имя файла D:\Music\RIP\(02) Evidence - Wynton Marsalis.wav
Пиковый уровень 100.0 %
Качество трека 100.0 %
CRC теста D0C3CC26
CRC копии D0C3CC26
Копирование... OK
Трек 3
Имя файла D:\Music\RIP\(03) We See - Wynton Marsalis.wav
Пиковый уровень 80.2 %
Качество трека 99.9 %
CRC теста DC5AB036
CRC копии DC5AB036
Копирование... OK
Трек 4
Имя файла D:\Music\RIP\(04) Monk's Mood - Wynton Marsalis.wav
Пиковый уровень 98.5 %
Качество трека 100.0 %
CRC теста B924500D
CRC копии B924500D
Копирование... OK
Трек 5
Имя файла D:\Music\RIP\(05) Worry Later - Wynton Marsalis.wav
Пиковый уровень 100.0 %
Качество трека 99.9 %
CRC теста 4800C234
CRC копии 4800C234
Копирование... OK
Трек 6
Имя файла D:\Music\RIP\(06) Four In One - Wynton Marsalis.wav
Пиковый уровень 100.0 %
Качество трека 100.0 %
CRC теста A8D8527D
CRC копии A8D8527D
Копирование... OK
Трек 7
Имя файла D:\Music\RIP\(07) Reflections - Wynton Marsalis.wav
Пиковый уровень 99.0 %
Качество трека 100.0 %
CRC теста E753F49F
CRC копии E753F49F
Копирование... OK
Трек 8
Имя файла D:\Music\RIP\(08) In Walked Monk - Wynton Marsalis.wav
Пиковый уровень 100.0 %
Качество трека 100.0 %
CRC теста F5AD1A23
CRC копии F5AD1A23
Копирование... OK
Трек 9
Имя файла D:\Music\RIP\(09) Hackensack - Wynton Marsalis.wav
Пиковый уровень 100.0 %
Качество трека 100.0 %
CRC теста BE4CFD60
CRC копии BE4CFD60
Копирование... OK
Трек 10
Имя файла D:\Music\RIP\(10) Let's Cool One - Wynton Marsalis.wav
Пиковый уровень 100.0 %
Качество трека 100.0 %
CRC теста B83CF790
CRC копии B83CF790
Копирование... OK
Трек 11
Имя файла D:\Music\RIP\(11) Brilliant Corners - Wynton Marsalis.wav
Пиковый уровень 86.7 %
Качество трека 100.0 %
CRC теста 658F5D47
CRC копии 658F5D47
Копирование... OK
Трек 12
Имя файла D:\Music\RIP\(12) Brake's Sake - Wynton Marsalis.wav
Пиковый уровень 100.0 %
Качество трека 100.0 %
CRC теста 72B659B9
CRC копии 72B659B9
Копирование... OK
Трек 13
Имя файла D:\Music\RIP\(13) Ugly Beauty - Wynton Marsalis.wav
Пиковый уровень 69.2 %
Качество трека 100.0 %
CRC теста 673A77E9
CRC копии 673A77E9
Копирование... OK
Трек 14
Имя файла D:\Music\RIP\(14) Green Chimneys - Wynton Marsalis.wav
Пиковый уровень 100.0 %
Качество трека 100.0 %
CRC теста 276B16FC
CRC копии 276B16FC
Копирование... OK
Ошибок не произошло
Конец отчёта</pre></spoiler>
Приватный:
Нет (DHT включён)
Размер:
347.53 Мб (364,407,678 байт) » файлов: 17
Участники:
0 раздают, 0 качают (0 участников всего)
Внешние участники:
1 раздают, 0 качают (1 участников всего) [ Обновить ]
03:15
42
RSS
Нет комментариев. Ваш будет первым!