Поиск

1999 Nicola Stilo, Toninho Horta - Duets {Adventure Music} [CD]

1999 Nicola Stilo, Toninho Horta - Duets {Adventure Music} [CD]
1. Naima (Coltrane) (05:40)
2. Meu Canario (Horta) (03 :07)
3. In a Sentimental Mood (Ellington) (04:54)
4. Bibi's Mood (Stilo) (03:33)
5. Bons Amigos (Good Friends) (Horta) (03:06)
6. My One and Only Love (Wood / Mellin) (04:12)
7. Illusion (Stilo) (04:54)
8. Vento (Horta) (03:23)
9. My Ideal (Robin / Whiting / Chase) (03:11)
10. Very Early (Evans) (04:07)
Состав:
  • TONINHO HORTA — ac. guitar, vocal
  • NICOLA STILO — flutes

Recorded at Millesuoni Studio, Rome, January 1999

Лог создания рипа
X Lossless Decoder version 20100401 (117.0)
XLD extraction logfile from 2010-04-08 19:42:17 +0200
Nicola Stilo and Toninho Horta / Duets
Used drive : HL-DT-ST DVDRAM GP08NU20 (revision 1.00)
Use cdparanoia mode     : YES (CDParanoia III 10.2 engine)
Disable audio cache     : OK for the drive with cache less than 2750KB
Make use of C2 pointers : NO
Read offset correction  : 102
Max retry count         : 100
TOC of the extracted CD
     Track |   Start  |  Length  | Start sector | End sector
    ---------------------------------------------------------
        1  | 00:00:00 | 05:40:74 |         0    |    25573
        2  | 05:40:74 | 03:07:05 |     25574    |    39603
        3  | 08:48:04 | 04:54:29 |     39604    |    61682
        4  | 13:42:33 | 03:33:63 |     61683    |    77720
        5  | 17:16:21 | 03:06:53 |     77721    |    91723
        6  | 20:22:74 | 04:12:10 |     91724    |   110633
        7  | 24:35:09 | 04:58:64 |    110634    |   133047
        8  | 29:33:73 | 03:23:67 |    133048    |   148339
        9  | 32:57:65 | 03:11:51 |    148340    |   162715
       10  | 36:09:41 | 04:07:15 |    162716    |   181255
All Tracks
    Album gain             : -4.46 dB
    Peak                   : 1.000000
Track 01
    Filename : /Volumes/8-Jazz + altro/ Flac/Nicola Stilo and Toninho Horta - Duets (2005) [FLAC]/01 - Naima.flac
    Pre-gap length : 00:02:00
    Track gain             : -4.63 dB
    Peak                   : 0.976776
    CRC32 hash (test run)  : 63AE375B
    CRC32 hash             : 63AE375B
    CRC32 hash (skip zero) : E977498B
    AccurateRip signature  : 31DE9F6A
        ->Track not present in AccurateRip database.
    Statistics
        Read error                           : 0
        Skipped (treated as error)           : 0
        Edge jitter error (maybe fixed)      : 0
        Atom jitter error (maybe fixed)      : 0
        Drift error (maybe fixed)            : 0
        Dropped bytes error (maybe fixed)    : 0
        Duplicated bytes error (maybe fixed) : 0
        Inconsistency in error sectors       : 0
Track 02
    Filename : /Volumes/8-Jazz + altro/ Flac/Nicola Stilo and Toninho Horta - Duets (2005) [FLAC]/02 - Meu Canario.flac
    Track gain             : -5.39 dB
    Peak                   : 1.000000
    CRC32 hash (test run)  : CE6F4C91
    CRC32 hash             : CE6F4C91
    CRC32 hash (skip zero) : 9B558D8D
    AccurateRip signature  : 9003CE10
        ->Track not present in AccurateRip database.
    Statistics
        Read error                           : 0
        Skipped (treated as error)           : 0
        Edge jitter error (maybe fixed)      : 0
        Atom jitter error (maybe fixed)      : 0
        Drift error (maybe fixed)            : 0
        Dropped bytes error (maybe fixed)    : 0
        Duplicated bytes error (maybe fixed) : 0
        Inconsistency in error sectors       : 0
Track 03
    Filename : /Volumes/8-Jazz + altro/ Flac/Nicola Stilo and Toninho Horta - Duets (2005) [FLAC]/03 - In a Sentimental Mood.flac
    Track gain             : -3.49 dB
    Peak                   : 1.000000
    CRC32 hash (test run)  : 25B6FD65
    CRC32 hash             : 25B6FD65
    CRC32 hash (skip zero) : 2C211D44
    AccurateRip signature  : 051B930C
        ->Track not present in AccurateRip database.
    Statistics
        Read error                           : 0
        Skipped (treated as error)           : 0
        Edge jitter error (maybe fixed)      : 0
        Atom jitter error (maybe fixed)      : 0
        Drift error (maybe fixed)            : 0
        Dropped bytes error (maybe fixed)    : 0
        Duplicated bytes error (maybe fixed) : 0
        Inconsistency in error sectors       : 0
Track 04
    Filename : /Volumes/8-Jazz + altro/ Flac/Nicola Stilo and Toninho Horta - Duets (2005) [FLAC]/04 - Bibi's Mood.flac
    Pre-gap length : 00:00:01
    Track gain             : -4.22 dB
    Peak                   : 1.000000
    CRC32 hash (test run)  : ABE5830E
    CRC32 hash             : ABE5830E
    CRC32 hash (skip zero) : 64AA779D
    AccurateRip signature  : 12BADBCA
        ->Track not present in AccurateRip database.
    Statistics
        Read error                           : 0
        Skipped (treated as error)           : 0
        Edge jitter error (maybe fixed)      : 0
        Atom jitter error (maybe fixed)      : 0
        Drift error (maybe fixed)            : 0
        Dropped bytes error (maybe fixed)    : 0
        Duplicated bytes error (maybe fixed) : 0
        Inconsistency in error sectors       : 0
Track 05
    Filename : /Volumes/8-Jazz + altro/ Flac/Nicola Stilo and Toninho Horta - Duets (2005) [FLAC]/05 - Bons Amigos (Good Friends).flac
    Pre-gap length : 00:00:01
    Track gain             : -4.60 dB
    Peak                   : 0.965332
    CRC32 hash (test run)  : ED78786A
    CRC32 hash             : ED78786A
    CRC32 hash (skip zero) : CA4065C2
    AccurateRip signature  : CA30CD32
        ->Track not present in AccurateRip database.
    Statistics
        Read error                           : 0
        Skipped (treated as error)           : 0
        Edge jitter error (maybe fixed)      : 0
        Atom jitter error (maybe fixed)      : 0
        Drift error (maybe fixed)            : 0
        Dropped bytes error (maybe fixed)    : 0
        Duplicated bytes error (maybe fixed) : 0
        Inconsistency in error sectors       : 0
Track 06
    Filename : /Volumes/8-Jazz + altro/ Flac/Nicola Stilo and Toninho Horta - Duets (2005) [FLAC]/06 - My One and Only Love.flac
    Track gain             : -1.61 dB
    Peak                   : 0.965363
    CRC32 hash (test run)  : D7B1A539
    CRC32 hash             : D7B1A539
    CRC32 hash (skip zero) : 485A08A6
    AccurateRip signature  : F25C87CD
        ->Track not present in AccurateRip database.
    Statistics
        Read error                           : 0
        Skipped (treated as error)           : 0
        Edge jitter error (maybe fixed)      : 0
        Atom jitter error (maybe fixed)      : 0
        Drift error (maybe fixed)            : 0
        Dropped bytes error (maybe fixed)    : 0
        Duplicated bytes error (maybe fixed) : 0
        Inconsistency in error sectors       : 0
Track 07
    Filename : /Volumes/8-Jazz + altro/ Flac/Nicola Stilo and Toninho Horta - Duets (2005) [FLAC]/07 - Illusion.flac
    Track gain             : -5.03 dB
    Peak                   : 1.000000
    CRC32 hash (test run)  : 741A4F9E
    CRC32 hash             : 741A4F9E
    CRC32 hash (skip zero) : D543C41C
    AccurateRip signature  : 10119A3C
        ->Track not present in AccurateRip database.
    Statistics
        Read error                           : 0
        Skipped (treated as error)           : 0
        Edge jitter error (maybe fixed)      : 0
        Atom jitter error (maybe fixed)      : 0
        Drift error (maybe fixed)            : 0
        Dropped bytes error (maybe fixed)    : 0
        Duplicated bytes error (maybe fixed) : 0
        Inconsistency in error sectors       : 0
Track 08
    Filename : /Volumes/8-Jazz + altro/ Flac/Nicola Stilo and Toninho Horta - Duets (2005) [FLAC]/08 - Vento (Wind).flac
    Track gain             : -4.31 dB
    Peak                   : 1.000000
    CRC32 hash (test run)  : 2872F997
    CRC32 hash             : 2872F997
    CRC32 hash (skip zero) : 709C1996
    AccurateRip signature  : 6CDCEC1E
        ->Track not present in AccurateRip database.
    Statistics
        Read error                           : 0
        Skipped (treated as error)           : 0
        Edge jitter error (maybe fixed)      : 0
        Atom jitter error (maybe fixed)      : 0
        Drift error (maybe fixed)            : 0
        Dropped bytes error (maybe fixed)    : 0
        Duplicated bytes error (maybe fixed) : 0
        Inconsistency in error sectors       : 0
Track 09
    Filename : /Volumes/8-Jazz + altro/ Flac/Nicola Stilo and Toninho Horta - Duets (2005) [FLAC]/09 - My Ideal.flac
    Pre-gap length : 00:00:01
    Track gain             : -5.25 dB
    Peak                   : 1.000000
    CRC32 hash (test run)  : 618A8064
    CRC32 hash             : 618A8064
    CRC32 hash (skip zero) : F8B3469F
    AccurateRip signature  : 92C818DB
        ->Track not present in AccurateRip database.
    Statistics
        Read error                           : 0
        Skipped (treated as error)           : 0
        Edge jitter error (maybe fixed)      : 0
        Atom jitter error (maybe fixed)      : 0
        Drift error (maybe fixed)            : 0
        Dropped bytes error (maybe fixed)    : 0
        Duplicated bytes error (maybe fixed) : 0
        Inconsistency in error sectors       : 0
Track 10
    Filename : /Volumes/8-Jazz + altro/ Flac/Nicola Stilo and Toninho Horta - Duets (2005) [FLAC]/10 - Very Early.flac
    Track gain             : -4.02 dB
    Peak                   : 1.000000
    CRC32 hash (test run)  : 0BC69859
    CRC32 hash             : 0BC69859
    CRC32 hash (skip zero) : 4C8E4060
    AccurateRip signature  : 6D70909B
        ->Track not present in AccurateRip database.
    Statistics
        Read error                           : 0
        Skipped (treated as error)           : 0
        Edge jitter error (maybe fixed)      : 0
        Atom jitter error (maybe fixed)      : 0
        Drift error (maybe fixed)            : 0
        Dropped bytes error (maybe fixed)    : 0
        Duplicated bytes error (maybe fixed) : 0
        Inconsistency in error sectors       : 0
No errors occurred
End of status report
00:01
303
Нет комментариев. Ваш будет первым!