Поиск

1999 Karl Denson's Tiny Universe - Karl Denson's Tiny Universe {Freestyle 671861}

1999 Karl Denson's Tiny Universe - Karl Denson's Tiny Universe {Freestyle 671861}
Страна-производитель диска (релиза):
USA
Дата издания диска:
1999
Номер по каталогу:
671861
Носитель:
CD
Битрейт аудио:
lossless
Аудиокодек:
FLAC (*.flac)
Тип рипа:
tracks
Наличие сканов:
  • нет
Треклист:
01. Ruff, Tuff & Tumble - For Sadie 5:43
02. Family Tree 8:58
03. ...Reminded Of Sunshine 7:06
04. Latin Snap 6:25
05. Can You Feel It 7:40
06. Fallin' - For Deborah 6:5
 
  • Recorded at San Diego Recording Studio.
  • Mastered at UCSD.
Состав:
  • Bass – Ignacio Arango (tracks: 3,7)
  • Congas – Santos (15) (tracks: 3,5)
  • Drums – Alan Evans
  • Electric Bass, Backing Vocals – Chris Stillwell
  • Engineer, Mixed By – Ralph Pitt
  • Guitar – Elgin Park (tracks: 1,3,5), Joey Carano
  • Organ [H/artists//artists//artists//artists//artists//artists//artists//artists//artists//artists//artists//artists//artists//artists//artists//artists//artists//artists//artists//artists//artists//artists//artists//artists//artists/AMM.html">AMM
  • .html">AMM
.html">AMM.html">AMM.html">AMM.html">AMM.html">AMM.html">AMM.html">AMM.html">AMM.html">AMM.html">AMM.html">AMM.html">AMM.html">AMM.html">AMM.html">AMM.html">AMM.html">AMM.html">AMM.html">AMM.html">AMM.html">AMM.html">AMM.html">AMM.html">AMM.html">AMM.html">AMM.html">AMM.html">AMM.html">AMM.html">AMM.html">AMM.html">AMM.html">AMM.html">AMM-88.html">AMM-88.html">AMM-88.html">AMM-88.html">AMM-88.html">AMM-88.html">AMM-88.html">AMM-88.html">AMM-88.html">AMM-88.html">AMM-88.html">AMM-88.html">AMM-88.html">AMM-88.html">AMMond B3] – Robert Walter (tracks: 1,2) Organ [H/artists//artists//artists//artists//artists//artists//artists//artists//artists//artists//artists//artists//artists//artists//artists//artists//artists//artists//artists//artists//artists//artists//artists//artists//artists/AMM.html">AMM.html">AMM.html">AMM.html">AMM.html">AMM.html">AMM.html">AMM.html">AMM.html">AMM.html">AMM.html">AMM.html">AMM.html">AMM.html">AMM.html">AMM.html">AMM.html">AMM.html">AMM.html">AMM.html">AMM.html">AMM.html">AMM.html">AMM.html">AMM.html">AMM.html">AMM.html">AMM.html">AMM.html">AMM.html">AMM.html">AMM.html">AMM.html">AMM.html">AMM.html">AMM.html">AMM-88.html">AMM-88.html">AMM-88.html">AMM-88.html">AMM-88.html">AMM-88.html">AMM-88.html">AMM-88.html">AMM-88.html">AMM-88.html">AMM-88.html">AMM-88.html">AMM-88.html">AMM-88.html">AMMond B3], Electric Piano [Fender Rhodes] – David Veith Saxophone, Flute, Percussion, Vocals – Karl Denson Trumpet, Backing Vocals – Carlos Washington Written-By, Arranged By, Producer – Karl Denson
Лог создания рипа
<spoiler title="Лог создания рипа"><pre>EAC extraction logfile from 11. March 2007, 21:24 for CD
Karl Denson's Tiny Universe / Karl Denson's Tiny Universe
Used drive : SONY DVD-ROM DDU1612 Adapter: 3 ID: 0
Read mode : Secure with NO C2, accurate stream, disable cache
Read offset correction : 12
Overread into Lead-In and Lead-Out : No
Used output format : C:\Program Files\Exact Audio Copy\flac.exe (User Defined Encoder) 192 kBit/s Additional command line options : -V -8 -T "artist=%a" -T "title=%t" -T "album=%g" -T "date=%y" -T "tracknumber=%n" -T "genre=%m" %s
Other options : Fill up missing offset samples with silence : Yes Delete leading and trailing silent blocks : No Installed external ASPI interface
Track 1 Filename C:\Documents and Settings\Eric Stutzman\My Documents\Downloads\Karl Denson's Tiny Universe\(01) Ruff, Tuff & Tumble.wav Pre-gap length 0:00:02.00 Peak level 86.1 % Track quality 100.0 % Test CRC F4875632 Copy CRC F4875632 Copy OK
Track 2 Filename C:\Documents and Settings\Eric Stutzman\My Documents\Downloads\Karl Denson's Tiny Universe\(02) Family Tree.wav Peak level 93.0 % Track quality 99.9 % Test CRC DC23F4CD Copy CRC DC23F4CD Copy OK
Track 3 Filename C:\Documents and Settings\Eric Stutzman\My Documents\Downloads\Karl Denson's Tiny Universe\(03) ...Reminded Of Sunshine.wav Peak level 84.6 % Track quality 100.0 % Test CRC 4B2915C4 Copy CRC 4B2915C4 Copy OK
Track 4 Filename C:\Documents and Settings\Eric Stutzman\My Documents\Downloads\Karl Denson's Tiny Universe\(04) Latin Snap.wav Peak level 88.0 % Track quality 100.0 % Test CRC 58D080FB Copy CRC 58D080FB Copy OK
Track 5 Filename C:\Documents and Settings\Eric Stutzman\My Documents\Downloads\Karl Denson's Tiny Universe\(05) Can You Feel It.wav Peak level 94.1 % Track quality 100.0 % Test CRC C9EF8331 Copy CRC C9EF8331 Copy OK
Track 6 Filename C:\Documents and Settings\Eric Stutzman\My Documents\Downloads\Karl Denson's Tiny Universe\(06) Fallin'.wav Peak level 83.9 % Track quality 100.0 % Test CRC 0C709745 Copy CRC 0C709745 Copy OK
No errors occured
End of status report</pre></spoiler>
Приватный:
Нет (DHT включён)
Размер:
270.74 Мб (283,894,522 байт) » файлов: 10
Участники:
1 раздают, 0 качают (1 участников всего)
Внешние участники:
Нет внешних трекеров [ Обновить ]
07:03
73
RSS
Нет комментариев. Ваш будет первым!