Поиск

1999 Jon Hassell - Fascinoma {Water Lily Acoustics WLA-CS-70-CD}

1999 Jon Hassell - Fascinoma {Water Lily Acoustics WLA-CS-70-CD}
Страна-производитель диска (релиза):
USA
Дата записи диска:
октябрь 1997 - ноябрь 1998
Дата издания диска:
22 июня 1999
Номер по каталогу:
WLA-CS-70-CD
Носитель:
CD
Битрейт аудио:
lossless
Аудиокодек:
FLAC (*.flac)
Тип рипа:
image+.cue
Время звучания:
01:00:34
Наличие сканов:
  • нет
Релизёр (источник):
Blackrum
Лог создания рипа
Exact Audio Copy V0.99 prebeta 1 from 25. May 2007

Отчёт EAC об извлечении, выполненном 9. июля 2007, 9:49

Jon Hassell / Fascinoma

Дисковод: TEAC DW-552G Adapter: 1 ID: 0

Режим чтения : Достоверность
Использование точного потока : Да
Отключение кэша аудио : Да
Использование указателей C2 : Да

Комбинированное смещение чтения/записи : 0
Способность читать области Lead-in и Lead-out : Нет
Заполнение пропущенных сэмплов тишиной : Да
Удаление блоков с тишиной в начале и конце : Нет
Интерфейс : Встроенный Win32-интерфейс для Win NT/2000

Выходной формат : Пользовательский кодировщик
Выбранный битрейт : 768 kBit/s
Качество : Высокий
Добавление ID3-тэга : Нет
Утилита сжатия : C:\Program Files\Exact Audio Copy\FLAC\FLAC.EXE
Дополнительные параметры : -6 -V -T "ARTIST=%a" -T "TITLE=%t" -T "ALBUM=%g" -T "DATE=%y" -T "TRACKNUMBER=%n" -T "GENRE=%m" -T "COMMENT=%e" %s -o %d

TOC извлечённого CD

Трек | Старт | Длительность | Начальный сектор | Конечный сектор
---------------------------------------------------------------------
1 | 0:00.00 | 2:45.50 | 0 | 12424
2 | 2:45.50 | 4:31.12 | 12425 | 32761
3 | 7:16.62 | 7:18.40 | 32762 | 65651
4 | 14:35.27 | 6:35.00 | 65652 | 95276
5 | 21:10.27 | 6:16.25 | 95277 | 123501
6 | 27:26.52 | 6:33.48 | 123502 | 153024
7 | 34:00.25 | 4:28.67 | 153025 | 173191
8 | 38:29.17 | 5:15.13 | 173192 | 196829
9 | 43:44.30 | 12:09.07 | 196830 | 251511
10 | 55:53.37 | 4:40.50 | 251512 | 272561

Характеристики диапазона извлечения и сообщения об ошибках

Выбранный диапазон

Имя файла C:\-= Music =-\- LOSSLESS -\Jon Hassell - Fascinoma\Jon Hassell - Fascinoma.wav

Пиковый уровень 95.2 %
Качество диапазона 100.0 %
CRC копии 78E1790E
Копирование... OK

Ошибок не произошло

Конец отчёта
Приватный:
Нет (DHT включён)
Размер:
250.04 Мб (262,185,919 байт) » файлов: 2
Участники:
0 раздают, 0 качают (0 участников всего)
Внешние участники:
2 раздают, 1 качают (3 участников всего) [ Обновить ]
09:53
126
RSS
Нет комментариев. Ваш будет первым!