Поиск

1999 John Hicks Trio - Cry Me A River (2016) {Venus} [DSD64 ISO]

1999 John Hicks Trio - Cry Me A River (2016) {Venus} [DSD64 ISO]
Стили:
Дата записи диска:
27 июня 1997
Место записи:
Studio A, Clinton Recording Studios, New York, NY, USA
Издатель (лейбл):
Номер по каталогу:
VHGD-185
Носитель:
SACD
Формат:
DSD
Тип рипа:
tracks
Контейнер:
ISO (*.iso)
Количество каналов:
2.0
Разрядность/ЧД:
64 (2,8 MHz/1 Bit)
Битрейт аудио:
lossless
Время звучания:
00:59:46
Наличие сканов:
только обложка

1. Witchcraft  07:33
2. Softly As In A Mornig Sunrise  06:41
3. Beautiful Love  06:19
4. I'm Getting Sentimental Over You  05:33
5. Cry Me A River  08:00
6. Alone Together  08:01
7. You Don't Know What Love Is  06:29
8. Moon And Sand  06:58
9. C Jam Blues  04:45

Состав:
  • Dwayne Burno     Bass
  • Victor Lewis     Drums
  • Troy Halderson     Engineer
  • Tetsuo Hara     Mastering, Mixing, Producer
  • Shuji Kitamura     Mastering
  • John Hicks     Piano
  • Todd Barkan     Producer
Лог проверки качества
foobar2000 1.6.8 / Dynamic Range Meter 1.1.1
log date: 2021-12-15 10:04:48
--------------------------------------------------------------------------------
Analyzed: JOHN HICKS TRIO / Cry Me A River
--------------------------------------------------------------------------------
DR         Peak         RMS     Duration Track
--------------------------------------------------------------------------------
DR9       -5.18 dB   -16.62 dB      7:29 01-Witchcraft
DR8       -4.50 dB   -15.03 dB      6:37 02-Softly As In A Morning Sunrise
DR11      -5.26 dB   -18.96 dB      6:15 03-Beautiful Love
DR8       -4.85 dB   -15.26 dB      5:29 04-I'm Getting Sentimental Over You
DR9       -5.18 dB   -15.75 dB      7:56 05-Cry Me A River
DR7       -4.87 dB   -14.27 dB      7:57 06-Alone Together
DR8       -5.14 dB   -15.75 dB      6:25 07-You Don't Know What Love Is
DR8       -4.74 dB   -15.02 dB      6:54 08-Moon And Sand
DR7       -4.92 dB   -15.12 dB      4:46 09-"C" Jam Blues
--------------------------------------------------------------------------------
Number of tracks:  9
Official DR value: DR8
Samplerate:        2822400 Hz / PCM Samplerate: 88200 Hz
Channels:          2
Bits per sample:   1
Bitrate:           5645 kbps
Codec:             DSD64
================================================================================
Приватный:
Нет (DHT включён)
Размер:
2.43 Гб (2,612,454,541 байт) » файлов: 4
Участники:
23 раздают, 3 качают (26 участников всего)
Внешние участники:
--- [ Обновить ]
15:50
402
Нет комментариев. Ваш будет первым!