Поиск

1999 Frank Kimbrough & Joe Locke - Saturn's Child {OmniTone 11901} [CD]

1999 Frank Kimbrough & Joe Locke - Saturn's Child {OmniTone 11901} [CD]
Треклист:

1. 727 (Frank Kimbrough) (7:03)
2. Saturn's Child (Joe Locke) (7:46)
3. Trouble Is A Gorgeous Dancer (Joe Locke) (8:26)
4. Silence (Charlie Haden) (4:56)
5. Waltz For Lee (Frank Kimbrough) (4:06)
6. Empty Chalice (Joe Locke) (8:03)
7. Sanibel Island (Frank Kimbrough) (8:19)
8. I Still Believe (In Love) (Joe Locke) (9:33)
9. Midnight (Joe Locke, Frank Kimbrough) (4:36)

Состав:
  • Frank Kimbrough: piano
  • Joe Locke: vibraphone

Жанр: Post-Bop, Contemporary Jazz
Носитель: CD
Год издания: 1999
Издатель (лейбл): OmniTone
Номер по каталогу: 11901
Страна: U.S.A.
Аудиокодек: FLAC (*.flac)
Тип рипа: tracks+cue
Битрейт аудио: lossless
Продолжительность: 63:05
Источник (релизер): RedTopia
Наличие сканов в содержимом раздачи: back, front

Лог создания рипа
X Lossless Decoder version 20170729 (150.3)

XLD extraction logfile from 2017-12-29 13:06:40 -0500

Frank Kimbrough & Joe Locke / Saturn's Child

Used drive : TSSTcorp BDDVDW SE-506BB (revision TS00)
Media type : Pressed CD

Ripper mode             : XLD Secure Ripper
Disable audio cache     : OK for the drive with a cache less than 1375KiB
Make use of C2 pointers : NO
Read offset correction  : 6
Max retry count         : 100
Gap status              : Analyzed, Appended (except HTOA)

TOC of the extracted CD
     Track |   Start  |  Length  | Start sector | End sector
    ---------------------------------------------------------
        1  | 00:00:00 | 07:04:32 |         0    |    31831
        2  | 07:04:32 | 07:49:00 |     31832    |    67006
        3  | 14:53:32 | 08:27:65 |     67007    |   105096
        4  | 23:21:22 | 04:55:55 |    105097    |   127276
        5  | 28:17:02 | 04:09:40 |    127277    |   145991
        6  | 32:26:42 | 08:03:35 |    145992    |   182251
        7  | 40:30:02 | 08:23:73 |    182252    |   220049
        8  | 48:54:00 | 09:35:42 |    220050    |   263216
        9  | 58:29:42 | 04:36:13 |    263217    |   283929

AccurateRip Summary (DiscID: 0015c4de-009f5464-840ec909)
    Track 01 : OK (v1, confidence 3/3)
    Track 02 : OK (v1, confidence 3/3)
    Track 03 : OK (v1, confidence 3/3)
    Track 04 : OK (v1, confidence 3/3)
    Track 05 : OK (v1, confidence 3/3)
    Track 06 : OK (v1, confidence 3/3)
    Track 07 : OK (v1, confidence 3/3)
    Track 08 : OK (v1, confidence 3/3)
    Track 09 : OK (v1, confidence 3/3)
        ->All tracks accurately ripped.

All Tracks
    Album gain               : -2.53 dB
    Peak                     : 1.000000
    Statistics
        Read error                           : 0
        Jitter error (maybe fixed)           : 6
        Retry sector count                   : 1131
        Damaged sector count                 : 0

Track 01
    Filename : /Users/diridonstation/Rips/Frank Kimbrough & Joe Locke - Saturn's Child (1999) [FLAC]/01 727.flac
    Pre-gap length : 00:02:00

    Track gain               : -1.92 dB
    Peak                     : 0.850616
    CRC32 hash (test run)    : A56A1017
    CRC32 hash               : A56A1017
    CRC32 hash (skip zero)   : E9F6A907
    AccurateRip v1 signature : A1148DAC
    AccurateRip v2 signature : 97853ABF
        ->Accurately ripped (v1, confidence 3/3)
    Statistics
        Read error                           : 0
        Jitter error (maybe fixed)           : 0
        Retry sector count                   : 0
        Damaged sector count                 : 0

Track 02
    Filename : /Users/diridonstation/Rips/Frank Kimbrough & Joe Locke - Saturn's Child (1999) [FLAC]/02 Saturn's Child.flac
    Pre-gap length : 00:01:60

    Track gain               : -3.18 dB
    Peak                     : 0.830566
    CRC32 hash (test run)    : 1B804D4A
    CRC32 hash               : 1B804D4A
    CRC32 hash (skip zero)   : 8966F4ED
    AccurateRip v1 signature : ACDFA1E2
    AccurateRip v2 signature : ABE71DA3
        ->Accurately ripped (v1, confidence 3/3)
    Statistics
        Read error                           : 0
        Jitter error (maybe fixed)           : 0
        Retry sector count                   : 0
        Damaged sector count                 : 0

Track 03
    Filename : /Users/diridonstation/Rips/Frank Kimbrough & Joe Locke - Saturn's Child (1999) [FLAC]/03 Trouble Is a Gorgeous Dancer.flac
    Pre-gap length : 00:02:67

    Track gain               : -3.37 dB
    Peak                     : 0.838379
    CRC32 hash (test run)    : B8535FA8
    CRC32 hash               : B8535FA8
    CRC32 hash (skip zero)   : 5B5E4D03
    AccurateRip v1 signature : 395A0CB9
    AccurateRip v2 signature : FC2A0A87
        ->Accurately ripped (v1, confidence 3/3)
    Statistics
        Read error                           : 0
        Jitter error (maybe fixed)           : 1
        Retry sector count                   : 0
        Damaged sector count                 : 0

Track 04
    Filename : /Users/diridonstation/Rips/Frank Kimbrough & Joe Locke - Saturn's Child (1999) [FLAC]/04 Silence.flac
    Pre-gap length : 00:01:60

    Track gain               : 0.19 dB
    Peak                     : 0.642456
    CRC32 hash (test run)    : C05F5AA9
    CRC32 hash               : C05F5AA9
    CRC32 hash (skip zero)   : 94505F45
    AccurateRip v1 signature : A8D26968
    AccurateRip v2 signature : 2E80A747
        ->Accurately ripped (v1, confidence 3/3)
    Statistics
        Read error                           : 0
        Jitter error (maybe fixed)           : 1
        Retry sector count                   : 446
        Damaged sector count                 : 0

Track 05
    Filename : /Users/diridonstation/Rips/Frank Kimbrough & Joe Locke - Saturn's Child (1999) [FLAC]/05 Waltz for Lee.flac
    Pre-gap length : 00:00:35

    Track gain               : -4.57 dB
    Peak                     : 1.000000
    CRC32 hash (test run)    : C2628651
    CRC32 hash               : C2628651
    CRC32 hash (skip zero)   : 5CC8075C
    AccurateRip v1 signature : B51ED146
    AccurateRip v2 signature : 6906E541
        ->Accurately ripped (v1, confidence 3/3)
    Statistics
        Read error                           : 0
        Jitter error (maybe fixed)           : 1
        Retry sector count                   : 246
        Damaged sector count                 : 0

Track 06
    Filename : /Users/diridonstation/Rips/Frank Kimbrough & Joe Locke - Saturn's Child (1999) [FLAC]/06 Empty Chalice.flac
    Pre-gap length : 00:03:60

    Track gain               : -0.47 dB
    Peak                     : 0.831909
    CRC32 hash (test run)    : F04C27CA
    CRC32 hash               : F04C27CA
    CRC32 hash (skip zero)   : 9E6F5E91
    AccurateRip v1 signature : A3BAEDAC
    AccurateRip v2 signature : 9D1AFA9A
        ->Accurately ripped (v1, confidence 3/3)
    Statistics
        Read error                           : 0
        Jitter error (maybe fixed)           : 1
        Retry sector count                   : 439
        Damaged sector count                 : 0

Track 07
    Filename : /Users/diridonstation/Rips/Frank Kimbrough & Joe Locke - Saturn's Child (1999) [FLAC]/07 Sanibel Island.flac
    Pre-gap length : 00:00:72

    Track gain               : -3.05 dB
    Peak                     : 0.919830
    CRC32 hash (test run)    : C495D453
    CRC32 hash               : C495D453
    CRC32 hash (skip zero)   : 76426BE1
    AccurateRip v1 signature : 68C2ADEF
    AccurateRip v2 signature : AD439F66
        ->Accurately ripped (v1, confidence 3/3)
    Statistics
        Read error                           : 0
        Jitter error (maybe fixed)           : 1
        Retry sector count                   : 0
        Damaged sector count                 : 0

Track 08
    Filename : /Users/diridonstation/Rips/Frank Kimbrough & Joe Locke - Saturn's Child (1999) [FLAC]/08 I Still Believe (In Love).flac
    Pre-gap length : 00:05:20

    Track gain               : -1.24 dB
    Peak                     : 0.900726
    CRC32 hash (test run)    : 2170D15E
    CRC32 hash               : 2170D15E
    CRC32 hash (skip zero)   : 6C5DC910
    AccurateRip v1 signature : 1354C02D
    AccurateRip v2 signature : E26E3A80
        ->Accurately ripped (v1, confidence 3/3)
    Statistics
        Read error                           : 0
        Jitter error (maybe fixed)           : 1
        Retry sector count                   : 0
        Damaged sector count                 : 0

Track 09
    Filename : /Users/diridonstation/Rips/Frank Kimbrough & Joe Locke - Saturn's Child (1999) [FLAC]/09 Midnight.flac
    Pre-gap length : 00:02:57

    Track gain               : -0.24 dB
    Peak                     : 0.960846
    CRC32 hash (test run)    : 74874DA4
    CRC32 hash               : 74874DA4
    CRC32 hash (skip zero)   : B9E3C4E1
    AccurateRip v1 signature : 612E8047
    AccurateRip v2 signature : C5B0806D
        ->Accurately ripped (v1, confidence 3/3)
    Statistics
        Read error                           : 0
        Jitter error (maybe fixed)           : 0
        Retry sector count                   : 0
        Damaged sector count                 : 0

No errors occurred

End of status report

-----BEGIN XLD SIGNATURE-----
rPYrL.o7BGyWUtJwRn7TE.B_2wFn6ImiBta0D8Iqz7b4cdjakhw4vHrPAfNvzY9Q5bA7DqVtWOl8pSDH.r038B_kw._4w.WQiDwsQhm
-----END XLD SIGNATURE-----
Содержание индексной карты (.CUE)
TITLE "Saturn's Child"
PERFORMER "Frank Kimbrough & Joe Locke"
REM GENRE "Jazz"
REM DATE "1999"
REM DISCID 840EC909
REM REPLAYGAIN_ALBUM_GAIN -2.53 dB
REM REPLAYGAIN_ALBUM_PEAK 1.000000
FILE "01 - 727.flac" WAVE
  TRACK 01 AUDIO
    TITLE "727"
    PERFORMER "Frank Kimbrough & Joe Locke"
    SONGWRITER "Frank Kimbrough"
    FLAGS DCP
    REM REPLAYGAIN_TRACK_GAIN -1.92 dB
    REM REPLAYGAIN_TRACK_PEAK 0.850616
    INDEX 01 00:00:00
  TRACK 02 AUDIO
    TITLE "Saturn's Child"
    PERFORMER "Frank Kimbrough & Joe Locke"
    SONGWRITER "Joe Locke"
    FLAGS DCP
    REM REPLAYGAIN_TRACK_GAIN -3.18 dB
    REM REPLAYGAIN_TRACK_PEAK 0.830566
    INDEX 00 07:02:47
FILE "02 - Saturn's Child.flac" WAVE
    INDEX 01 00:00:00
  TRACK 03 AUDIO
    TITLE "Trouble Is a Gorgeous Dancer"
    PERFORMER "Frank Kimbrough & Joe Locke"
    SONGWRITER "Joe Locke"
    FLAGS DCP
    REM REPLAYGAIN_TRACK_GAIN -3.37 dB
    REM REPLAYGAIN_TRACK_PEAK 0.838379
    INDEX 00 07:46:08
FILE "03 - Trouble Is a Gorgeous Dancer.flac" WAVE
    INDEX 01 00:00:00
  TRACK 04 AUDIO
    TITLE "Silence"
    PERFORMER "Frank Kimbrough & Joe Locke"
    SONGWRITER "Charlie Haden"
    FLAGS DCP
    REM REPLAYGAIN_TRACK_GAIN 0.19 dB
    REM REPLAYGAIN_TRACK_PEAK 0.642456
    INDEX 00 08:26:05
FILE "04 - Silence.flac" WAVE
    INDEX 01 00:00:00
  TRACK 05 AUDIO
    TITLE "Waltz for Lee"
    PERFORMER "Frank Kimbrough & Joe Locke"
    SONGWRITER "Frank Kimbrough"
    FLAGS DCP
    REM REPLAYGAIN_TRACK_GAIN -4.57 dB
    REM REPLAYGAIN_TRACK_PEAK 1.000000
    INDEX 00 04:55:20
FILE "05 - Waltz for Lee.flac" WAVE
    INDEX 01 00:00:00
  TRACK 06 AUDIO
    TITLE "Empty Chalice"
    PERFORMER "Frank Kimbrough & Joe Locke"
    SONGWRITER "Joe Locke"
    FLAGS DCP
    REM REPLAYGAIN_TRACK_GAIN -0.47 dB
    REM REPLAYGAIN_TRACK_PEAK 0.831909
    INDEX 00 04:05:55
FILE "06 - Empty Chalice.flac" WAVE
    INDEX 01 00:00:00
  TRACK 07 AUDIO
    TITLE "Sanibel Island"
    PERFORMER "Frank Kimbrough & Joe Locke"
    SONGWRITER "Frank Kimbrough"
    FLAGS DCP
    REM REPLAYGAIN_TRACK_GAIN -3.05 dB
    REM REPLAYGAIN_TRACK_PEAK 0.919830
    INDEX 00 08:02:38
FILE "07 - Sanibel Island.flac" WAVE
    INDEX 01 00:00:00
  TRACK 08 AUDIO
    TITLE "I Still Believe (In Love)"
    PERFORMER "Frank Kimbrough & Joe Locke"
    SONGWRITER "Joe Locke"
    FLAGS DCP
    REM REPLAYGAIN_TRACK_GAIN -1.24 dB
    REM REPLAYGAIN_TRACK_PEAK 0.900726
    INDEX 00 08:18:53
FILE "08 - I Still Believe (In Love).flac" WAVE
    INDEX 01 00:00:00
  TRACK 09 AUDIO
    TITLE "Midnight"
    PERFORMER "Frank Kimbrough & Joe Locke"
    SONGWRITER "Joe Locke/Frank Kimbrough"
    FLAGS DCP
    REM REPLAYGAIN_TRACK_GAIN -0.24 dB
    REM REPLAYGAIN_TRACK_PEAK 0.960846
    INDEX 00 09:32:60
FILE "09 - Midnight.flac" WAVE
    INDEX 01 00:00:00
Download available for power users only.
17:52
373
Нет комментариев. Ваш будет первым!