Поиск

1999 Carol Welsman - Inclined {Justin Time JTR 8478-2} [CD]

1999 Carol Welsman - Inclined {Justin Time JTR 8478-2} [CD]
Стили:
Издатель (лейбл):
Номер по каталогу:
JTR 8478-2
Треклист:

01. Beyond The Sea
02. Samba De Uma Nota So
03. Fever
04. La Fiesta
05. Inclined
06. I'll Be Around
07. Fais Comme L'Oiseau
08. Winds To Fly
09. New Day
10. Twinkle Twinkle Little Star

Recorded October 29 - November 3, 1996 ["Beyond The Sea" was recorded April 9, 1999] at Inception Sound.
Mastered at Lacquer Channel, Toronto Canada.

Доп. инфо:

Страна-производитель диска: Canada
Год издания диска: 1999
Аудио кодек: FLAC (*.flac)
Тип рипа: image+.cue
Битрейт аудио: lossless
Продолжительность: 51:09
Источник (релизер): собственный рип с оригинального CD (Darkman)
Наличие сканов в содержимом раздачи: да (полный набор сканов, 300 dpi)

Web Site: http://www.carolwelsman.com/

Лог создания рипа
Exact Audio Copy V0.99 prebeta 5 from 4. May 2009
EAC extraction logfile from 14. January 2011, 16:34
Carol Welsman / Inclined
Used drive  : HL-DT-STDVD-RAM GSA-H54N   Adapter: 0  ID: 0
Read mode               : Secure
Utilize accurate stream : Yes
Defeat audio cache      : Yes
Make use of C2 pointers : No
Read offset correction                      : 102
Overread into Lead-In and Lead-Out          : No
Fill up missing offset samples with silence : Yes
Delete leading and trailing silent blocks   : No
Null samples used in CRC calculations       : Yes
Used interface                              : Native Win32 interface for Win NT & 2000
Used output format              : User Defined Encoder
Selected bitrate                : 320 kBit/s
Quality                         : High
Add ID3 tag                     : No
Command line compressor         : C:\Program Files\Exact Audio Copy\Flac\flac.exe
Additional command line options : -8 -V %s
TOC of the extracted CD
     Track |   Start  |  Length  | Start sector | End sector
    ---------------------------------------------------------
        1  |  0:00.00 |  3:48.12 |         0    |    17111
        2  |  3:48.12 |  5:00.53 |     17112    |    39664
        3  |  8:48.65 |  4:57.52 |     39665    |    61991
        4  | 13:46.42 |  6:28.00 |     61992    |    91091
        5  | 20:14.42 |  5:59.63 |     91092    |   118079
        6  | 26:14.30 |  5:31.70 |    118080    |   142974
        7  | 31:46.25 |  4:22.60 |    142975    |   162684
        8  | 36:09.10 |  5:23.72 |    162685    |   186981
        9  | 41:33.07 |  6:40.63 |    186982    |   217044
       10  | 48:13.70 |  2:55.60 |    217045    |   230229
Range status and errors
Selected range
     Filename C:\EAC\Carol Welsman - Inclined.wav
     Peak level 100.0 %
     Range quality 100.0 %
     Test CRC 08AD0C11
     Copy CRC 08AD0C11
     Copy OK
No errors occurred
AccurateRip summary
Track  1  accurately ripped (confidence 1)  [5FB0838D]
Track  2  accurately ripped (confidence 1)  [711B6A54]
Track  3  accurately ripped (confidence 1)  [2964CA3A]
Track  4  accurately ripped (confidence 1)  [85E65B80]
Track  5  accurately ripped (confidence 1)  [22B3E90F]
Track  6  accurately ripped (confidence 1)  [E9158DCF]
Track  7  accurately ripped (confidence 1)  [51332387]
Track  8  accurately ripped (confidence 1)  [1BB47787]
Track  9  accurately ripped (confidence 1)  [DB4ADDCB]
Track 10  accurately ripped (confidence 1)  [08D0CB24]
All tracks accurately ripped
End of status report
По всем вопросам пишите личное сообщение пользователю M0p94ok.
20:00
501
Нет комментариев. Ваш будет первым!