Поиск

1998 VA - Stars of Las Vegas {Crimson CRIMCD132} [CD]

1998 VA - Stars of Las Vegas {Crimson CRIMCD132} [CD]
Битрейт аудио:
lossless
Треклист:

1. Till - Tom Jones
2. What Now, My Love? - Shirley Bassey
3. Another Time, Another Place - Engelbert Humperdinck
4. Mr. Wonderful - Peggy Lee
5. That's Amore - Dean Martin
6. This Is My Song - Petula Clark
7. Fly Me to the Moon - Nat King Cole
8. Mack the Knife - Louis Armstrong
9. A-Tisket, A-Tasket - Ella Fitzgerald
10. Walk Away (Warum Nur Warum) - Matt Monro
11. Call Me Irresponsible - Julie London
12. Spanish Eyes - Al Martino
13. True Love - Jack Jones
14. It's Only Make Believe - Glen Campbell
15. I Did What I Did for Maria - Tony Christie
16. Unchained Melody - Al Hibbler
17. Welcome to My World - Jim Reeves
18. And I Love You So - Perry Como
19. Love Me Warm and Tender - Paul Anka
20. Sentimental Journey - Doris Day
21. Around the World (In Eighty Days) - Bing Crosby
22. Saturday Night (Is the Loneliest Night of the Week) - Frank Sinatra

Жанр: Vocal Jazz
Носитель: CD
Страна-производитель диска (релиза): UK
Год издания: 1998
Издатель (лейбл): Crimson Productions
Номер по каталогу: CRIMCD132
Страна исполнителя (группы): USA
Аудиокодек: FLAC (*.flac)
Тип рипа: image+.cue
Битрейт аудио: lossless
Продолжительность: 01:05:16
Источник: собственный рип
Наличие сканов в содержимом раздачи: да

Лог создания рипа
Exact Audio Copy V1.3 from 2. September 2016

Отчёт EAC об извлечении, выполненном 22. ноября 2018, 15:36

Various Artists / Stars Of Las Vegas

Дисковод: hp      DVDRAM GT80N   Adapter: 1  ID: 0

Режим чтения                 : Достоверность
Использование точного потока : Да
Отключение кэша аудио        : Да
Использование указателей C2  : Нет

Коррекция смещения при чтении                     : 102
Способность читать области Lead-in и Lead-out     : Нет
Заполнение пропущенных сэмплов тишиной            : Да
Удаление блоков с тишиной в начале и конце        : Нет
При вычислениях CRC использовались нулевые сэмплы : Да
Интерфейс                                         : Встроенный Win32-интерфейс для Win NT/2000

Выходной формат          : Пользовательский кодировщик
Выбранный битрейт        : 128 kBit/s
Качество                 : Высокий
Добавление ID3-тега      : Нет
Утилита сжатия           : C:\Program Files (x86)\Exact Audio Copy\Flac\flac.exe
Дополнительные параметры : -V -8 -T "Date=%year%" -T "Genre=%genre%" %source%

TOC извлечённого CD

     Трек |   Старт  | Длительность | Начальный сектор | Конечный сектор
    ---------------------------------------------------------------------
       1  |  0:00.00 |    2:18.08   |           0      |      10357
       2  |  2:18.08 |    2:54.54   |       10358      |      23461
       3  |  5:12.62 |    3:03.00   |       23462      |      37186
       4  |  8:15.62 |    3:18.15   |       37187      |      52051
       5  | 11:34.02 |    3:07.08   |       52052      |      66084
       6  | 14:41.10 |    3:15.02   |       66085      |      80711
       7  | 17:56.12 |    3:30.28   |       80712      |      96489
       8  | 21:26.40 |    3:29.00   |       96490      |     112164
       9  | 24:55.40 |    2:37.68   |      112165      |     124007
      10  | 27:33.33 |    3:06.58   |      124008      |     138015
      11  | 30:40.16 |    2:47.32   |      138016      |     150572
      12  | 33:27.48 |    2:46.11   |      150573      |     163033
      13  | 36:13.59 |    2:31.17   |      163034      |     174375
      14  | 38:45.01 |    2:26.03   |      174376      |     185328
      15  | 41:11.04 |    3:28.06   |      185329      |     200934
      16  | 44:39.10 |    2:54.17   |      200935      |     214001
      17  | 47:33.27 |    2:37.23   |      214002      |     225799
      18  | 50:10.50 |    3:18.70   |      225800      |     240719
      19  | 53:29.45 |    2:17.43   |      240720      |     251037
      20  | 55:47.13 |    3:50.37   |      251038      |     268324
      21  | 59:37.50 |    2:54.48   |      268325      |     281422
      22  | 62:32.23 |    2:44.40   |      281423      |     293762

Характеристики диапазона извлечения и сообщения об ошибках

Выбранный диапазон

     Имя файла D:\Music\Various Artists - Stars Of Las Vegas.wav

     Пиковый уровень 100.0 %
     Скорость извлечения 4.3 X
     Качество диапазона 100.0 %
     CRC теста B31F9DEA
     CRC копии B31F9DEA
     Копирование... OK

Ошибок не произошло

AccurateRip: сводка

Трек  1  точность не определена (достоверность 1)  [DE85FB16], AccurateRip вернул [9CF69C78]  (AR v2)
Трек  2  точность не определена (достоверность 1)  [156AC445], AccurateRip вернул [27FF6863]  (AR v2)
Трек  3  точность не определена (достоверность 1)  [82CA5262], AccurateRip вернул [B08B2C5E]  (AR v2)
Трек  4  точность не определена (достоверность 1)  [1923E298], AccurateRip вернул [D97480F3]  (AR v2)
Трек  5  точность не определена (достоверность 1)  [FA7DB865], AccurateRip вернул [378B8C47]  (AR v2)
Трек  6  точность не определена (достоверность 1)  [0E4B2E24], AccurateRip вернул [9751E8AD]  (AR v2)
Трек  7  точность не определена (достоверность 1)  [09413650], AccurateRip вернул [06AA221C]  (AR v2)
Трек  8  точность не определена (достоверность 1)  [5EB26AEF], AccurateRip вернул [DCED1A31]  (AR v2)
Трек  9  точность не определена (достоверность 1)  [22C4D65E], AccurateRip вернул [54AD0D5B]  (AR v2)
Трек 10  точность не определена (достоверность 1)  [579A23FA], AccurateRip вернул [411076FD]  (AR v2)
Трек 11  точность не определена (достоверность 1)  [164FA1DB], AccurateRip вернул [F874FBFC]  (AR v2)
Трек 12  точность не определена (достоверность 1)  [DC70D7A4], AccurateRip вернул [FC51478C]  (AR v2)
Трек 13  точность не определена (достоверность 1)  [A65AA3DB], AccurateRip вернул [72646AB0]  (AR v2)
Трек 14  точность не определена (достоверность 1)  [E29ADCA3], AccurateRip вернул [4351AD19]  (AR v2)
Трек 15  точность не определена (достоверность 1)  [A409249A], AccurateRip вернул [47B50FE9]  (AR v2)
Трек 16  точность не определена (достоверность 1)  [8AC63E91], AccurateRip вернул [8BE872DF]  (AR v2)
Трек 17  точность не определена (достоверность 1)  [EE909658], AccurateRip вернул [AA5AF58D]  (AR v2)
Трек 18  точность не определена (достоверность 1)  [4D5B1D7F], AccurateRip вернул [23E35FC5]  (AR v2)
Трек 19  точность не определена (достоверность 1)  [17E700E1], AccurateRip вернул [57ED3AF3]  (AR v2)
Трек 20  точность не определена (достоверность 1)  [1A290911], AccurateRip вернул [8A48F7DA]  (AR v2)
Трек 21  точность не определена (достоверность 1)  [2531FC1F], AccurateRip вернул [C3F63068]  (AR v2)
Трек 22  точность не определена (достоверность 1)  [991B9DCF], AccurateRip вернул [44C1068B]  (AR v2)

Ни один трек не прошёл проверки на точность
В вашей базе может быть иной вариант штамповки диска

Конец отчёта

==== Контрольная сумма отчёта 007583DB079AFA963E6E3DA762324FCEE8320BB8EDA2CD20A222624D4D2BC5BE ====
Содержание индексной карты (.CUE)
REM GENRE Other
REM DATE 1998
REM DISCID 4C0F4C16
REM COMMENT "ExactAudioCopy v1.3"
PERFORMER "Various Artists"
TITLE "Stars Of Las Vegas"
REM COMPOSER ""
FILE "Various Artists - Stars Of Las Vegas.flac" WAVE
  TRACK 01 AUDIO
    TITLE "Tom Jones + Till"
    PERFORMER "Various Artists"
    REM COMPOSER ""
    INDEX 01 00:00:00
  TRACK 02 AUDIO
    TITLE "Shirley Bassey + What Now My Love"
    PERFORMER "Various Artists"
    REM COMPOSER ""
    INDEX 00 02:17:08
    INDEX 01 02:18:08
  TRACK 03 AUDIO
    TITLE "Engelbert Humperdink + Another Time Another Place"
    PERFORMER "Various Artists"
    REM COMPOSER ""
    INDEX 00 05:11:62
    INDEX 01 05:12:62
  TRACK 04 AUDIO
    TITLE "Peggy Lee + Mr Wonderful"
    PERFORMER "Various Artists"
    REM COMPOSER ""
    INDEX 00 08:14:63
    INDEX 01 08:15:62
  TRACK 05 AUDIO
    TITLE "Dean Martin + That's Amore (That's Love)"
    PERFORMER "Various Artists"
    REM COMPOSER ""
    INDEX 00 11:33:02
    INDEX 01 11:34:02
  TRACK 06 AUDIO
    TITLE "Petula Clark + This Is My Song"
    PERFORMER "Various Artists"
    REM COMPOSER ""
    INDEX 00 14:40:10
    INDEX 01 14:41:10
  TRACK 07 AUDIO
    TITLE "Nat King Cole + Fly Me To The Moon (In Other Words)"
    PERFORMER "Various Artists"
    REM COMPOSER ""
    INDEX 00 17:55:12
    INDEX 01 17:56:12
  TRACK 08 AUDIO
    TITLE "Louis Armstrong + Mack The Knife"
    PERFORMER "Various Artists"
    REM COMPOSER ""
    INDEX 00 21:25:41
    INDEX 01 21:26:40
  TRACK 09 AUDIO
    TITLE "Ella Fitzgerald + A-Tisket, A-Tasket"
    PERFORMER "Various Artists"
    REM COMPOSER ""
    INDEX 00 24:54:40
    INDEX 01 24:55:40
  TRACK 10 AUDIO
    TITLE "Matt Monro + Walk Away"
    PERFORMER "Various Artists"
    REM COMPOSER ""
    INDEX 00 27:32:33
    INDEX 01 27:33:33
  TRACK 11 AUDIO
    TITLE "Julie London + Call Me Irresponsible"
    PERFORMER "Various Artists"
    REM COMPOSER ""
    INDEX 00 30:39:16
    INDEX 01 30:40:16
  TRACK 12 AUDIO
    TITLE "Al Martino + Spanish Eyes"
    PERFORMER "Various Artists"
    REM COMPOSER ""
    INDEX 00 33:26:48
    INDEX 01 33:27:48
  TRACK 13 AUDIO
    TITLE "Jack Jones + True Love"
    PERFORMER "Various Artists"
    REM COMPOSER ""
    INDEX 00 36:12:59
    INDEX 01 36:13:59
  TRACK 14 AUDIO
    TITLE "Glen Campell + It's Only Make Believe"
    PERFORMER "Various Artists"
    REM COMPOSER ""
    INDEX 00 38:44:01
    INDEX 01 38:45:01
  TRACK 15 AUDIO
    TITLE "Tony Christie + I Did What I Did For Maria"
    PERFORMER "Various Artists"
    REM COMPOSER ""
    INDEX 00 41:10:05
    INDEX 01 41:11:04
  TRACK 16 AUDIO
    TITLE "Al Hibbler + Unchained Melody"
    PERFORMER "Various Artists"
    REM COMPOSER ""
    INDEX 00 44:38:10
    INDEX 01 44:39:10
  TRACK 17 AUDIO
    TITLE "Jim Reeves + Welcome To My World"
    PERFORMER "Various Artists"
    REM COMPOSER ""
    INDEX 00 47:32:27
    INDEX 01 47:33:27
  TRACK 18 AUDIO
    TITLE "Perry Como + And I Love You So"
    PERFORMER "Various Artists"
    REM COMPOSER ""
    INDEX 00 50:09:51
    INDEX 01 50:10:50
  TRACK 19 AUDIO
    TITLE "Paul Anka + Love Me Warm And Tender"
    PERFORMER "Various Artists"
    REM COMPOSER ""
    INDEX 00 53:28:45
    INDEX 01 53:29:45
  TRACK 20 AUDIO
    TITLE "Doris Day + Sentimental Journey"
    PERFORMER "Various Artists"
    REM COMPOSER ""
    INDEX 00 55:46:13
    INDEX 01 55:47:13
  TRACK 21 AUDIO
    TITLE "Bing Crosby + Around The World (In Eighty Days)"
    PERFORMER "Various Artists"
    REM COMPOSER ""
    INDEX 00 59:36:50
    INDEX 01 59:37:50
  TRACK 22 AUDIO
    TITLE "Frank Sinatra + Saturday Night Is The Loneliest Night Of The Week"
    PERFORMER "Various Artists"
    REM COMPOSER ""
    INDEX 00 62:31:24
    INDEX 01 62:32:23
Приватный:
Да (DHT отключён)
Размер:
366.87 Мб (384,689,201 байт) » файлов: 11
Участники:
2 раздают, 0 качают (2 участников всего)
Внешние участники:
5 раздают, 1 качают (6 участников всего) [ Обновить ]
Для участников группы Pro-jazz Club: никого нет на раздаче - пишите ЛС M0p94ok
For Pro-jazz Club group members: no seeders - write PM to M0p94ok
13:17
147
Нет комментариев. Ваш будет первым!